<?xml version="1.0" standalone="no"?>
<!DOCTYPE svg PUBLIC "-//W3C//DTD SVG 1.1//EN" "http://www.w3.org/Graphics/SVG/1.1/DTD/svg11.dtd" >
<svg xmlns="http://www.w3.org/2000/svg">
<metadata>Generated by IcoMoon</metadata>
<defs>
<font id="icomoon" horiz-adv-x="1024">
<font-face units-per-em="1024" ascent="960" descent="-64" />
<missing-glyph horiz-adv-x="1024" />
<glyph unicode="&#x20;" horiz-adv-x="512" d="" />
<glyph unicode="&#xe900;" glyph-name="icon-rules-close" d="M512 960c279.403 0 506.535-223.744 511.903-501.922l0.097-10.078c0-279.403-223.744-506.535-501.922-511.903l-10.078-0.097c-282.77 0-512 229.168-512 512 0 279.403 223.744 506.535 501.922 511.903l10.078 0.097zM692.992 672l-180.992-180.992-180.992 180.992-43.008-43.008 180.992-180.992-180.992-180.992 43.008-43.008 180.992 180.992 180.992-180.992 43.008 43.008-180.992 180.992 180.992 180.992-43.008 43.008z" />
<glyph unicode="&#xe901;" glyph-name="icon-x" d="M797.434 732.973c-4.192 4.2-9.171 7.532-14.656 9.805-5.478 2.274-11.354 3.444-17.286 3.444s-11.814-1.17-17.293-3.444c-5.478-2.273-10.458-5.606-14.65-9.805l-221.554-221.1-221.553 221.553c-4.195 4.195-9.174 7.523-14.655 9.793s-11.354 3.438-17.286 3.438c-5.932 0-11.806-1.168-17.287-3.438s-10.46-5.597-14.655-9.793c-4.195-4.195-7.522-9.174-9.792-14.655s-3.439-11.354-3.439-17.286c0-5.932 1.169-11.806 3.439-17.287s5.597-10.46 9.792-14.655l221.553-221.553-221.553-221.551c-4.195-4.198-7.522-9.178-9.792-14.656s-3.439-11.354-3.439-17.286c0-5.933 1.169-11.808 3.439-17.286 2.27-5.485 5.597-10.464 9.792-14.656s9.174-7.52 14.655-9.792c5.481-2.272 11.355-3.437 17.287-3.437s11.806 1.165 17.286 3.437c5.481 2.272 10.461 5.6 14.655 9.792l221.553 221.553 221.554-221.553c4.192-4.192 9.171-7.52 14.656-9.792 5.478-2.272 11.354-3.437 17.286-3.437s11.802 1.165 17.286 3.437c5.478 2.272 10.458 5.6 14.656 9.792 4.192 4.192 7.52 9.171 9.792 14.656 2.266 5.478 3.437 11.354 3.437 17.286s-1.171 11.808-3.437 17.286c-2.272 5.478-5.6 10.458-9.792 14.656l-221.555 221.551 221.555 221.553c17.216 17.217 17.216 46.213 0 63.43z" />
<glyph unicode="&#xe902;" glyph-name="icon-alert-triangle" d="M508.326 850.176c-42.022 0-87.475-28.762-123.622-93.939l-0.013-0.026-256.346-461.056c-33.894-61.146-34.483-113.37-13.338-149.389 21.12-36.006 66.944-60.89 136.96-60.89h256.358c1.242 0 2.458-0.154 3.61-0.422h252.749c69.798 0 115.635 24.883 136.832 60.902 21.197 36.032 20.685 88.243-13.197 149.376l-256.358 461.504c-36.147 65.178-81.613 93.939-123.635 93.939zM504.717 54.144h-252.736c-76.762 0-135.002 27.571-163.469 76.070-28.467 48.486-24.192 112.806 12.966 179.84l256.358 461.094c39.168 70.605 93.107 109.747 150.49 109.747 57.395 0 111.347-39.142 150.502-109.76l124.365-223.757 131.981-237.747c37.171-67.046 41.331-131.379 12.813-179.84-28.506-48.486-86.733-76.058-163.302-76.058h-256.358c-1.242 0-2.445 0.141-3.61 0.422zM505.6 627.2c8.486 0 15.36-6.374 15.36-14.234v-250.189c0-7.859-6.874-14.234-15.36-14.234s-15.36 6.374-15.36 14.234v250.189c0 7.859 6.874 14.234 15.36 14.234zM505.6 297.523c10.598 0 19.2-7.962 19.2-17.792v-5.939c0-9.818-8.602-17.792-19.2-17.792s-19.2 7.974-19.2 17.792v5.939c0 9.83 8.602 17.792 19.2 17.792z" />
<glyph unicode="&#xe903;" glyph-name="icon-android-device" d="M435.2 166.4c0 14.138 11.462 25.6 25.6 25.6v0h102.4c14.138 0 25.6-11.462 25.6-25.6s-11.462-25.6-25.6-25.6v0h-102.4c-14.138 0-25.6 11.462-25.6 25.6v0zM358.4 416c2.099 27.136 9.728 52.070 22.861 74.88 12.894 22.452 30.634 40.774 51.887 53.976l0.644 0.373-25.83 48.64c-0.87 1.342-1.387 2.982-1.387 4.743 0 0.892 0.133 1.752 0.379 2.564l-0.016-0.062c0.658 2.499 2.303 4.529 4.483 5.685l0.049 0.024c1.083 0.753 2.425 1.203 3.873 1.203 0.862 0 1.687-0.16 2.446-0.451l-0.047 0.016c2.33-0.768 4.198-2.304 5.581-4.582l25.856-48.64c18.348 8.632 39.85 13.671 62.529 13.671 0.103 0 0.206 0 0.309 0h-0.016c21.888 0 42.829-4.557 62.848-13.67l25.83 48.64c1.245 2.133 3.188 3.744 5.509 4.536l0.071 0.021c2.304 0.768 4.429 0.512 6.272-0.768 2.33-1.254 3.84-3.149 4.557-5.683 0.22-0.735 0.347-1.579 0.347-2.452 0-1.77-0.521-3.419-1.418-4.801l0.021 0.034-25.856-48.64c21.91-13.577 39.66-31.909 52.167-53.64l0.39-0.734c13.158-22.784 20.762-47.77 22.861-74.88h-307.2zM442.189 457.805c4.864 0 9.011 1.843 12.39 5.53 3.146 3.409 5.075 7.981 5.075 13.005 0 0.171-0.002 0.342-0.007 0.512l0.001-0.025c0.004 0.145 0.006 0.315 0.006 0.486 0 5.023-1.929 9.596-5.087 13.018l0.012-0.013c-2.98 3.383-7.322 5.506-12.159 5.506-0.081 0-0.163-0.001-0.244-0.002h0.012c-0.069 0.001-0.15 0.002-0.231 0.002-4.837 0-9.179-2.123-12.144-5.488l-0.015-0.018c-3.146-3.409-5.075-7.981-5.075-13.005 0-0.171 0.002-0.342 0.007-0.512l-0.001 0.025c-0.004-0.145-0.006-0.315-0.006-0.486 0-5.023 1.929-9.596 5.087-13.018l-0.012 0.013c2.981-3.398 7.332-5.531 12.181-5.531 0.074 0 0.147 0 0.22 0.001h-0.011zM581.811 457.805c4.89 0 9.037 1.843 12.39 5.53 3.146 3.409 5.075 7.981 5.075 13.005 0 0.171-0.002 0.342-0.007 0.512l0.001-0.025c0.004 0.145 0.006 0.315 0.006 0.486 0 5.023-1.929 9.596-5.087 13.018l0.012-0.013c-2.98 3.383-7.322 5.506-12.159 5.506-0.081 0-0.163-0.001-0.244-0.002h0.012c-0.069 0.001-0.15 0.002-0.231 0.002-4.837 0-9.179-2.123-12.144-5.488l-0.015-0.018c-3.131-3.405-5.050-7.967-5.050-12.978 0-0.181 0.002-0.361 0.007-0.54l-0.001 0.026c-0.004-0.153-0.007-0.333-0.007-0.514 0-5.010 1.919-9.573 5.063-12.991l-0.012 0.014c2.981-3.398 7.332-5.531 12.181-5.531 0.074 0 0.147 0 0.22 0.001h-0.011zM708.48 855.629c-17.034 17.035-40.567 27.571-66.56 27.571h-266.163c-51.992 0-94.142-42.141-94.157-94.13v-661.275c0.015-51.99 42.164-94.131 94.157-94.131h266.163c0.008 0 0.017 0 0.026 0 51.973 0 94.106 42.133 94.106 94.106 0 0.009 0 0.018 0 0.027v-0.001 661.274c0 24.96-9.907 48.896-27.571 66.56zM375.757 832h266.163c23.731 0 42.931-19.226 42.931-42.931v-661.274c0-23.731-19.226-42.931-42.931-42.931l-269.875 0.179c-22.063 1.958-39.234 20.348-39.245 42.751v661.275c0 23.706 19.226 42.931 42.957 42.931z" />
<glyph unicode="&#xe904;" glyph-name="icon-comment-template" d="M452.693 345.728c4.949-1.792 9.387-4.693 12.885-8.533 3.456-3.84 5.973-8.533 7.168-13.483M452.693 345.728l20.053-22.016M452.693 345.728l-122.709 44.373 31.701 152.917c0.405 1.857 0.637 3.989 0.637 6.176 0 4.934-1.181 9.592-3.277 13.707l0.079-0.172c-3.157 6.161-8.086 11.035-14.11 14.040l-0.183 0.083c-4.249 2.138-9.261 3.39-14.565 3.39-9.172 0-17.47-3.744-23.448-9.787l-0.003-0.003-259.712-268.373c-5.359-5.542-8.661-13.102-8.661-21.433 0-2.492 0.296-4.915 0.853-7.236l-0.043 0.21c1.319-5.236 3.828-9.766 7.23-13.462l-0.020 0.022c3.499-3.84 7.893-6.784 12.8-8.533l122.795-44.416M452.736 345.728l-270.677-138.496M472.747 323.712c0.551-2.158 0.867-4.635 0.867-7.186 0-8.277-3.329-15.776-8.721-21.233l0.003 0.003-259.669-268.416c-5.98-6.038-14.272-9.776-23.437-9.776-5.293 0-10.294 1.247-14.727 3.463l0.191-0.086c-6.202 3.077-11.13 7.936-14.21 13.903l-0.083 0.177c-2.016 3.943-3.197 8.602-3.197 13.536 0 2.187 0.232 4.32 0.673 6.375l-0.036-0.199 31.701 152.917M472.789 323.669l-290.688-116.48M126.891 293.547l149.675 154.624-14.933-71.851c-0.407-1.862-0.64-4.002-0.64-6.195 0-5.573 1.505-10.795 4.131-15.281l-0.077 0.143c3.812-6.448 9.653-11.35 16.632-13.882l0.221-0.070 103.296-37.333-149.675-154.667 14.933 71.893c0.393 1.83 0.618 3.932 0.618 6.087 0 5.617-1.529 10.878-4.194 15.388l0.077-0.141c-3.802 6.441-9.628 11.342-16.589 13.881l-0.221 0.071-103.253 37.333zM256 874.667h341.333l256-256v-512c0-46.933-38.4-85.333-85.333-85.333h-298.667c-23.564 0-42.667 19.103-42.667 42.667s19.103 42.667 42.667 42.667v0h298.667v469.333h-213.333v213.333h-298.667v-170.837c0-23.482-19.036-42.517-42.517-42.517s-42.517 19.036-42.517 42.517v0l0.128 170.837c0 46.933 37.973 85.333 84.907 85.333z" />
<glyph unicode="&#xe905;" glyph-name="icon-confidential" d="M795.949 591.42h-100.352v71.68c0 102.961-83.467 186.428-186.428 186.428s-186.428-83.467-186.428-186.428v0-71.68h-100.472c-39.588 0-71.68-32.092-71.68-71.68v0-401.589c0-39.588 32.092-71.68 71.68-71.68v0h573.681c39.588 0 71.68 32.092 71.68 71.68v0 401.589c0 39.588-32.092 71.68-71.68 71.68v0zM408.757 663.1c1.374 54.388 45.791 97.953 100.382 97.953s99.008-43.565 100.38-97.826l0.003-0.127v-71.68h-200.764v71.68zM781.613 132.488h-544.888v372.856h544.949v-372.856zM566.513 318.916c0-31.687-25.687-57.374-57.374-57.374s-57.374 25.687-57.374 57.374v0c0 31.687 25.687 57.374 57.374 57.374s57.374-25.687 57.374-57.374v0z" />
<glyph unicode="&#xe906;" glyph-name="icon-export" d="M677.547 478.293l-165.547-165.547-165.547 165.547c-7.698 7.698-18.333 12.46-30.080 12.46-23.494 0-42.54-19.046-42.54-42.54 0-11.747 4.761-22.382 12.46-30.080l195.84-195.84c16.64-16.64 43.52-16.64 60.16 0l195.84 195.84c7.709 7.693 12.478 18.33 12.478 30.080s-4.769 22.387-12.477 30.079l-0.001 0.001c-16.64 16.213-43.947 16.64-60.587 0zM213.333 64c0 23.564 19.103 42.667 42.667 42.667v0h512c23.564 0 42.667-19.103 42.667-42.667s-19.103-42.667-42.667-42.667v0h-512c-23.564 0-42.667 19.103-42.667 42.667v0zM512 832c23.564 0 42.667-19.103 42.667-42.667v0-512c0-23.564-19.103-42.667-42.667-42.667s-42.667 19.103-42.667 42.667v0 512c0 23.564 19.103 42.667 42.667 42.667v0z" />
<glyph unicode="&#xe907;" glyph-name="icon-forward" d="M558.863 330.662v-116.856c0-0.019 0-0.042 0-0.064 0-11.078 8.98-20.058 20.058-20.058 5.555 0 10.583 2.258 14.215 5.907l234.256 234.256c3.631 3.63 5.877 8.645 5.877 14.185s-2.246 10.555-5.877 14.185l-234.255 234.255c-3.639 3.686-8.691 5.968-14.276 5.968-11.078 0-20.058-8.98-20.058-20.058 0-0.044 0-0.088 0-0.132v0.007-116.676c-112.821-19.757-195.464-70.536-254.313-137.818-61.5-70.295-96.136-157.515-113.363-243.531-0.257-1.204-0.404-2.587-0.404-4.004 0-11.078 8.98-20.058 20.058-20.058 6.73 0 12.686 3.315 16.325 8.401l0.041 0.061c75.896 106.255 180.465 157.816 331.716 162.033z" />
<glyph unicode="&#xe908;" glyph-name="icon-info" d="M519.347 780.8c187.853 0 340.173-152.294 340.173-340.147s-152.32-340.147-340.173-340.147-340.147 152.294-340.147 340.147c0 187.853 152.294 340.147 340.147 340.147zM519.347 729.6c-159.59 0-288.947-129.357-288.947-288.947s129.357-288.947 288.947-288.947c159.59 0 288.973 129.382 288.973 288.947s-129.382 288.947-288.973 288.947zM487.603 250.086c-14.126 0.016-25.572 11.471-25.572 25.6 0 13.073 9.799 23.857 22.453 25.408l0.124 0.012 2.995 0.179 6.144 0.026v206.592h-5.299c-14.115 0.031-25.546 11.48-25.546 25.6 0 13.073 9.799 23.857 22.453 25.408l0.124 0.012 2.97 0.154h30.899c0.007 0 0.014 0 0.022 0 13.083 0 23.874-9.814 25.412-22.482l0.012-0.123 0.154-2.995v-232.166l6.17-0.026c14.126-0.016 25.572-11.471 25.572-25.6 0-13.073-9.799-23.857-22.453-25.408l-0.124-0.012-2.995-0.179h-63.514zM519.347 655.898c0.007 0 0.014 0 0.022 0 13.083 0 23.874-9.814 25.412-22.482l0.012-0.123 0.154-2.995v-5.222c-0.031-14.115-11.48-25.546-25.6-25.546-13.073 0-23.857 9.799-25.408 22.453l-0.012 0.124-0.179 2.97v5.222c0 14.138 11.462 25.6 25.6 25.6v0z" />
<glyph unicode="&#xe909;" glyph-name="icon-ios-device" d="M512 115.2c14.138 0 25.6 11.462 25.6 25.6s-11.462 25.6-25.6 25.6v0c-14.138 0-25.6-11.462-25.6-25.6s11.462-25.6 25.6-25.6v0zM708.48 855.629c-17.034 17.035-40.567 27.571-66.56 27.571h-266.163c-51.992 0-94.142-42.141-94.157-94.13v-661.275c0.015-51.99 42.164-94.131 94.157-94.131h266.163c0.008 0 0.017 0 0.026 0 51.973 0 94.106 42.133 94.106 94.106 0 0.009 0 0.018 0 0.027v-0.001 661.248c0 24.986-9.907 48.922-27.571 66.586zM375.757 832h266.163c23.731 0 42.931-19.226 42.931-42.931v-661.274c0-23.731-19.226-42.931-42.931-42.931l-269.875 0.179c-22.063 1.958-39.234 20.348-39.245 42.751v661.249c0 23.757 19.226 42.957 42.957 42.957zM594.048 625.664c-2.359-9.361-6.569-17.52-12.246-24.428l0.086 0.108c-11.446-13.803-28.599-22.528-47.789-22.528-0.074 0-0.148 0-0.222 0h0.011c-0.788 3.706-1.239 7.964-1.239 12.328 0 14.913 5.27 28.596 14.048 39.288l-0.086-0.108c11.446 13.773 28.58 22.477 47.747 22.477 0.089 0 0.178 0 0.267-0.001h-0.014c1.818-8.96 1.638-18.253-0.563-27.136zM597.274 497.382c3.738 17.266 14.699 31.426 29.488 39.399l0.311 0.153c-9.139 14.899-21.965 25.472-37.658 28.979-22.349 4.915-45.312-5.504-63.565-25.344-18.227 19.84-41.216 30.259-63.488 25.344-39.782-8.883-61.824-62.106-49.203-118.912 12.595-56.832 55.066-95.77 94.797-86.963 6.816 1.718 12.794 4.541 18.055 8.301l-0.161-0.109c5.504-3.712 11.315-6.733 17.869-8.192 35.968-7.936 73.907 23.296 90.214 71.373-26.931 6.682-43.341 35.891-36.659 65.971z" />
<glyph unicode="&#xe90a;" glyph-name="icon-mdm" d="M553.187 857.991l-0.017 0.010c-28.794 16.533-64.3 16.533-93.093-0.001l-0.015-0.009-285.402-163.177c-28.826-16.413-46.66-46.961-46.66-80.029v-326.528c0-33.066 17.832-63.611 46.652-80.024l0.022-0.013 37.723-21.61c7.361-4.218 16.746-1.669 20.963 5.692 4.218 7.361 1.669 16.746-5.692 20.963l-37.797 21.654c-19.295 10.981-31.15 31.373-31.15 53.339v326.528c0 21.966 11.855 42.358 31.15 53.339l285.494 163.231c19.325 11.102 43.195 11.102 62.52 0l285.494-163.359c19.295-10.981 31.15-31.373 31.15-53.339v-326.528c0-21.921-11.821-42.228-31.19-53.362l-0.013-0.008-285.396-163.302c-19.351-11.009-43.268-11.007-62.619 0.006l-155.31 86.2v479.777c0 19.794 16.046 35.84 35.84 35.84h300.8c19.794 0 35.84-16.046 35.84-35.84v-413.44c0-8.484 6.877-15.361 15.36-15.361s15.36 6.877 15.36 15.361v413.44c0 36.76-29.8 66.56-66.56 66.56h-300.8c-36.76 0-66.56-29.8-66.56-66.56v-486.4c0-3.982 1.516-7.611 4.001-10.34 1.322-2.836 3.52-5.297 6.465-6.931l160.443-89.048c28.76-16.335 64.195-16.32 92.945 0.042l285.492 163.359c28.751 16.516 46.621 46.893 46.621 80.006v326.528c0 33.069-17.834 63.616-46.66 80.029l-285.402 163.306zM505.6 601.6c10.604 0 19.2 8.596 19.2 19.2s-8.596 19.2-19.2 19.2c-10.604 0-19.2-8.596-19.2-19.2s8.596-19.2 19.2-19.2zM493.733 561.070l-72.023-41.637c-10.822-6.26-17.485-17.809-17.485-30.316v-83.263c0-12.504 6.662-24.060 17.495-30.314l72.012-41.631c0.004-0.003-0.003 0.001 0 0 10.829-6.267 24.183-6.264 35.011 0.005l72.015 41.628c10.822 6.257 17.482 17.81 17.482 30.312v83.263c0 12.504-6.671 24.056-17.482 30.317l-72.027 41.636c-10.824 6.257-24.173 6.257-34.998 0zM509.106 534.473c1.313 0.759 2.939 0.759 4.252 0 0 0.001 0 0 0 0l72.015-41.628c-0.001 0.001 0.001-0.001 0 0 1.325-0.769 2.147-2.188 2.147-3.727v-83.263c0-1.544-0.82-2.954-2.135-3.715l-72.027-41.635c-1.308-0.758-2.932-0.764-4.241-0.006l-72.029 41.641c-1.317 0.76-2.143 2.173-2.143 3.715v83.263c0 1.537 0.815 2.952 2.143 3.721l72.018 41.635z" />
<glyph unicode="&#xe90b;" glyph-name="icon-sort-arrow" d="M512 720c26.51 0 48-21.49 48-48v0-384c0-26.51-21.49-48-48-48s-48 21.49-48 48v0 384c0 26.51 21.49 48 48 48v0zM286.080 449.92c8.684 8.674 20.676 14.038 33.92 14.038s25.236-5.364 33.921-14.038l158.079-158.079 158.080 158.080c8.787 9.411 21.267 15.277 35.117 15.277 26.51 0 48-21.49 48-48 0-13.85-5.866-26.33-15.249-35.092l-0.028-0.026-192-192c-8.684-8.674-20.676-14.038-33.92-14.038s-25.236 5.364-33.921 14.038l-191.999 191.999c-8.674 8.684-14.038 20.676-14.038 33.92s5.364 25.236 14.038 33.921l-0.001-0.001z" />
<glyph unicode="&#xe90c;" glyph-name="icon-sort-option" d="M469.333 192h85.333c23.467 0 42.667 19.2 42.667 42.667s-19.2 42.667-42.667 42.667h-85.333c-23.467 0-42.667-19.2-42.667-42.667s19.2-42.667 42.667-42.667zM128 661.333c0-23.467 19.2-42.667 42.667-42.667h682.667c23.467 0 42.667 19.2 42.667 42.667s-19.2 42.667-42.667 42.667h-682.667c-23.467 0-42.667-19.2-42.667-42.667zM298.667 405.333h426.667c23.467 0 42.667 19.2 42.667 42.667s-19.2 42.667-42.667 42.667h-426.667c-23.467 0-42.667-19.2-42.667-42.667s19.2-42.667 42.667-42.667z" />
<glyph unicode="&#xe90d;" glyph-name="icon-check-circle" d="M908.373 708.693l-426.667-426.667c-7.693-7.709-18.33-12.478-30.080-12.478s-22.387 4.769-30.079 12.477l-120.748 120.748c-7.698 7.698-12.46 18.333-12.46 30.080 0 23.494 19.046 42.54 42.54 42.54 11.747 0 22.382-4.761 30.080-12.46l90.453-90.453 396.373 396.373c7.693 7.709 18.33 12.478 30.080 12.478s22.387-4.769 30.079-12.477l0.001-0.001c17.067-16.64 17.067-43.52 0.427-60.16zM672.853 843.093c-72.107 29.44-154.027 39.68-239.36 24.32-173.653-31.147-312.32-171.093-341.76-344.747-4.138-22.324-6.504-48.010-6.504-74.249 0-235.854 191.197-427.051 427.051-427.051 20.063 0 39.803 1.384 59.129 4.060l-2.236-0.254c168.96 21.76 310.613 147.627 354.987 311.893 17.067 62.72 18.773 123.307 8.96 180.053-5.547 34.133-47.787 47.36-72.533 23.040-9.813-9.813-14.080-24.32-11.52-37.973 9.387-56.747 5.12-117.333-22.187-181.76-49.493-115.627-157.013-200.533-282.027-212.053-217.6-20.053-398.080 164.267-371.2 383.147 18.347 151.040 139.947 273.92 290.56 294.827 73.813 10.24 143.787-3.84 203.52-34.56 5.756-3.068 12.587-4.871 19.84-4.871 23.662 0 42.844 19.182 42.844 42.844 0 16.409-9.225 30.664-22.772 37.861l-0.232 0.112c-11.52 5.12-23.040 10.667-34.56 15.36z" />
<glyph unicode="&#xe90e;" glyph-name="icon-check" d="M875.883 887.263s129.315-92.876 132.28-92.876l-2.965-4.178-590.139-786.16h-128.48l-267.444 319.757 120.017 108.266 3.423-3.8 204.026-245.99 529.254 704.981z" />
<glyph unicode="&#xe90f;" glyph-name="icon-checkbox-blank-outline" d="M896.38 960c70.483 0 127.62-57.249 127.62-127.62v-768.76c0-70.483-57.249-127.62-127.62-127.62h-768.76c-70.483 0-127.62 57.249-127.62 127.62v768.76c0 70.483 57.249 127.62 127.62 127.62h768.76zM896.38 896h-768.76c-35.072 0-63.62-28.531-63.62-63.62v-768.76c0-35.072 28.531-63.62 63.62-63.62h768.76c35.072 0 63.62 28.531 63.62 63.62v768.76c0 35.072-28.531 63.62-63.62 63.62z" />
<glyph unicode="&#xe910;" glyph-name="icon-checkbox-marked" d="M896.38 960c70.483 0 127.62-57.249 127.62-127.62v-768.76c0-70.483-57.249-127.62-127.62-127.62h-768.76c-70.483 0-127.62 57.249-127.62 127.62v768.76c0 70.483 57.249 127.62 127.62 127.62h768.76zM800 672l-384-384-192 192-64-64 256-256 448 448-64 64z" />
<glyph unicode="&#xe911;" glyph-name="icon-chevron-left" d="M627.627 673.707c-7.693 7.709-18.33 12.478-30.080 12.478s-22.387-4.769-30.079-12.477l-195.841-195.841c-7.709-7.693-12.478-18.33-12.478-30.080s4.769-22.387 12.477-30.079l195.841-195.841c7.698-7.698 18.333-12.46 30.080-12.46 23.494 0 42.54 19.046 42.54 42.54 0 11.747-4.761 22.382-12.46 30.080v0l-165.547 165.973 165.547 165.547c16.64 16.64 16.213 43.947 0 60.16z" />
<glyph unicode="&#xe912;" glyph-name="icon-chevron-right" d="M396.373 673.707c-7.709-7.693-12.478-18.33-12.478-30.080s4.769-22.387 12.477-30.079l165.548-165.548-165.547-165.547c-7.698-7.698-12.46-18.333-12.46-30.080 0-23.494 19.046-42.54 42.54-42.54 11.747 0 22.382 4.761 30.080 12.46l195.84 195.84c7.709 7.693 12.478 18.33 12.478 30.080s-4.769 22.387-12.477 30.079l-195.841 195.841c-16.213 16.213-43.52 16.213-60.16-0.427z" />
<glyph unicode="&#xe913;" glyph-name="icon-comments" d="M383.398 739.84c-0.171 0-0.374 0.001-0.577 0.001-9.86 0-19.568-0.651-29.083-1.914l1.116 0.121c-50.739-4.403-86.861-21.722-110.541-50.048-23.872-28.582-36.954-70.554-36.954-127.846v-162.854c0-80.166 15.898-123.2 42.842-147.11 27.366-24.294 70.080-32.589 133.798-32.589h15.846c7.552 0 15.053-2.586 20.992-5.658 6.016-3.098 12.16-7.59 16.576-13.056l0.384-0.512 48.192-65.062c8.32-11.354 17.894-15.552 26.010-15.552s17.69 4.198 26.010 15.552l0.051 0.051 48.256 65.152c8.87 11.725 23.078 19.085 37.837 19.085h15.846c56.307 0 97.485 13.12 125.53 37.248 27.866 23.962 44.992 60.71 49.331 112.768l0.064 0.602c1.152 9.267 1.715 18.547 1.715 28.454v162.854c0 62.374-15.411 106.432-43.661 135.13-28.224 28.672-71.782 44.57-133.67 45.184h-255.898zM351.898 768.614c10.304 1.293 20.608 1.946 31.488 1.946h256.154c66.688-0.64 119.411-17.856 155.328-54.362 35.904-36.48 52.493-89.626 52.493-156.672v-162.854c0-11.034-0.64-21.466-1.907-31.91-4.838-57.408-24.282-102.592-59.904-133.222-35.482-30.528-84.813-44.659-145.549-44.659h-15.846c-4.736 0-9.997-2.522-13.312-6.861l-48.077-64.909c-13.005-17.728-31.155-28.070-50.765-28.070s-37.76 10.342-50.765 28.070l-0.026 0.038-47.872 64.64c-1.853 1.962-4.034 3.591-6.459 4.804l-0.133 0.060c-3.366 1.728-5.926 2.227-6.899 2.227h-15.846c-64.282 0-117.568 7.821-154.202 40.333-37.056 32.896-53.158 87.398-53.158 170.086v162.854c0 61.581 14.042 111.552 44.109 147.533 30.208 36.16 74.752 55.987 131.149 60.928zM317.44 563.2c0 8.483 6.877 15.36 15.36 15.36v0h345.6c8.483 0 15.36-6.877 15.36-15.36s-6.877-15.36-15.36-15.36v0h-345.6c-8.483 0-15.36 6.877-15.36 15.36v0zM317.44 448c0 8.483 6.877 15.36 15.36 15.36v0h243.2c8.483 0 15.36-6.877 15.36-15.36s-6.877-15.36-15.36-15.36h-243.2c-8.483 0-15.36 6.877-15.36 15.36v0z" />
<glyph unicode="&#xe914;" glyph-name="icon-data-no-hexagon" d="M268.8 778.24c0 8.483 6.877 15.36 15.36 15.36h254.208c8.483 0 15.36-6.877 15.36-15.36v-180.864h101.248c8.483 0 15.36-6.877 15.36-15.36s-6.877-15.36-15.36-15.36h-116.608c-8.483 0-15.36 6.877-15.36 15.36v180.864h-223.488v-618.496h419.712v431.269l-139.885 139.886c-5.999 5.998-5.999 15.724 0 21.722 5.998 5.999 15.724 5.999 21.722 0l144.384-144.384c2.881-2.88 4.499-6.787 4.499-10.861v-452.992c0-8.483-6.877-15.36-15.36-15.36h-450.432c-8.483 0-15.36 6.877-15.36 15.36v649.216zM376.064 498.688c0 8.484 6.877 15.36 15.36 15.36h79.872c8.483 0 15.36-6.876 15.36-15.36 0-8.483-6.877-15.36-15.36-15.36h-79.872c-8.483 0-15.36 6.877-15.36 15.36zM391.424 413.695c-8.483 0-15.36-6.876-15.36-15.36 0-8.483 6.877-15.36 15.36-15.36h235.904c8.483 0 15.36 6.877 15.36 15.36s-6.877 15.36-15.36 15.36h-235.904zM376.064 336.512c0 8.483 6.877 15.36 15.36 15.36h235.904c8.483 0 15.36-6.877 15.36-15.36s-6.877-15.36-15.36-15.36h-235.904c-8.483 0-15.36 6.876-15.36 15.36zM552.96 251.648c-8.483 0-15.36-6.876-15.36-15.36 0-8.483 6.877-15.36 15.36-15.36h74.368c8.483 0 15.36 6.877 15.36 15.36s-6.877 15.36-15.36 15.36h-74.368z" />
<glyph unicode="&#xe915;" glyph-name="icon-first-page" d="M712.832 673.707c-7.693 7.709-18.33 12.478-30.080 12.478s-22.387-4.769-30.079-12.477l-195.841-195.841c-7.709-7.693-12.478-18.33-12.478-30.080s4.769-22.387 12.477-30.079l195.841-195.841c7.698-7.698 18.333-12.46 30.080-12.46 23.494 0 42.54 19.046 42.54 42.54 0 11.747-4.761 22.382-12.46 30.080v0l-165.504 165.973 165.547 165.547c16.64 16.64 16.213 43.947 0 60.16zM256 661.333v-426.667c0-23.467 19.2-42.667 42.667-42.667s42.667 19.2 42.667 42.667v426.667c0 23.467-19.2 42.667-42.667 42.667s-42.667-19.2-42.667-42.667z" />
<glyph unicode="&#xe916;" glyph-name="icon-help" d="M511.569 852.211c-223.070 0-403.779-181.086-403.779-404.211s180.709-404.211 403.779-404.211c223.555 0 404.642 181.086 404.642 404.211s-181.086 404.211-404.642 404.211zM512 124.632c-178.661 0-323.368 144.707-323.368 323.368s144.707 323.368 323.368 323.368 323.368-144.707 323.368-323.368-144.707-323.368-323.368-323.368zM462.579 409.843c-0.012 0.349-0.018 0.759-0.018 1.17 0 10.399 4.208 19.816 11.014 26.64l-0.001-0.001c6.708 7.18 16.233 11.655 26.804 11.655 0.354 0 0.706-0.005 1.058-0.015l-0.052 0.001c17.677 0 33.63 2.587 47.859 7.761 14.228 5.605 25.438 14.444 33.63 26.516 8.623 12.072 12.935 28.025 12.935 47.859 0 14.659-3.665 27.594-10.995 38.804-7.133 11.347-16.996 20.38-28.692 26.327l-0.411 0.19c-11.542 6.122-25.234 9.716-39.766 9.716-0.572 0-1.142-0.006-1.711-0.017l0.085 0.001c-12.072 0-23.498-2.156-34.277-6.467-10.348-4.312-19.833-10.132-28.456-17.462-7.049-6.057-15.483-10.724-24.745-13.46l-0.478-0.121c-9.485-2.587-19.187-0.216-29.103 7.114-10.348 7.761-15.953 17.031-16.815 27.81s3.234 20.696 12.288 29.75c15.047 15.493 33.114 27.961 53.263 36.466l1.063 0.398c19.576 8.587 42.392 13.584 66.376 13.584 0.311 0 0.622-0.001 0.933-0.003h-0.048c29.75 0 56.482-6.899 80.195-20.696 24.145-13.366 43.331-31.475 57.56-54.326s21.342-48.721 21.342-77.608c0-21.558-3.234-40.744-9.701-57.56-6.467-16.384-15.737-30.612-27.81-42.685-11.676-11.574-25.373-21.132-40.512-28.094l-0.879-0.362c-15.522-6.899-32.552-11.857-51.092-14.875l-2.587-1.293c-0.431-0.431-0.647-1.078-0.647-1.94v-23.929c0.007-0.282 0.011-0.614 0.011-0.948 0-10.673-4.193-20.367-11.021-27.525l0.015 0.016c-6.823-6.805-16.24-11.013-26.639-11.013-0.412 0-0.822 0.007-1.23 0.020l0.060-0.002c-0.349-0.012-0.759-0.018-1.17-0.018-10.399 0-19.816 4.208-26.64 11.014l0.001-0.001c-6.813 7.142-11.006 16.836-11.006 27.509 0 0.333 0.004 0.665 0.012 0.997l-0.001-0.049v49.152zM498.149 205.474c-12.504 0-22.205 3.234-29.103 9.701-6.467 6.899-9.701 16.6-9.701 29.103v10.995c0 12.504 3.234 21.989 9.701 28.456 6.899 6.899 16.6 10.348 29.103 10.348h8.408c12.504 0 21.989-3.449 28.456-10.348 6.899-6.467 10.348-15.953 10.348-28.456v-10.995c0-12.504-3.449-22.205-10.348-29.103-6.467-6.467-15.953-9.701-28.456-9.701h-8.408z" />
<glyph unicode="&#xe917;" glyph-name="icon-last-page" d="M268.501 673.707c-7.709-7.693-12.478-18.33-12.478-30.080s4.769-22.387 12.477-30.079l165.548-165.548-165.547-165.547c-7.698-7.698-12.46-18.333-12.46-30.080 0-23.494 19.046-42.54 42.54-42.54 11.747 0 22.382 4.761 30.080 12.46l195.84 195.84c7.709 7.693 12.478 18.33 12.478 30.080s-4.769 22.387-12.477 30.079l-195.841 195.841c-16.213 16.213-43.52 16.213-60.16-0.427zM640.085 661.333v-426.667c0-23.467 19.2-42.667 42.667-42.667s42.667 19.2 42.667 42.667v426.667c0 23.467-19.2 42.667-42.667 42.667s-42.667-19.2-42.667-42.667z" />
<glyph unicode="&#xe918;" glyph-name="icon-mac-pc" d="M906.547 196.864c14.126-0.016 25.572-11.471 25.572-25.6 0-13.073-9.799-23.857-22.453-25.408l-0.124-0.012-2.995-0.179h-804.173c-14.126 0.016-25.572 11.471-25.572 25.6 0 13.073 9.799 23.857 22.453 25.408l0.124 0.012 2.995 0.179h804.173zM816.051 755.2c33.333-0.131 60.552-26.128 62.634-58.953l0.009-0.183 0.128-4.173v-384.486c0-0.071 0-0.154 0-0.238 0-33.28-25.752-60.546-58.417-62.956l-0.208-0.012-4.147-0.128h-623.36c-33.35 0.133-60.579 26.157-62.634 59.006l-0.009 0.181-0.128 4.147v251.93c0.016 14.126 11.471 25.572 25.6 25.572 13.073 0 23.857-9.799 25.408-22.453l0.012-0.124 0.179-2.995v-251.93c0-6.042 4.147-10.931 9.472-11.93l2.048-0.205h623.36c5.764 0.108 10.508 4.341 11.408 9.865l0.009 0.068 0.205 2.202v384.486c0.001 0.053 0.001 0.115 0.001 0.178 0 5.747-4.046 10.549-9.446 11.712l-0.079 0.014-2.048 0.205h-623.36c-5.754-0.097-10.492-4.324-11.383-9.84l-0.009-0.067-0.179-2.202v-42.47c-0.016-14.126-11.471-25.572-25.6-25.572-13.073 0-23.857 9.799-25.408 22.453l-0.012 0.124-0.179 2.995v42.47c0 0.077-0.001 0.168-0.001 0.26 0 33.27 25.757 60.524 58.419 62.909l0.206 0.012 4.147 0.128h623.36zM557.568 583.014c7.463 9.087 11.987 20.835 11.987 33.64 0 3.733-0.384 7.375-1.116 10.891l0.060-0.345c-0.071 0-0.156 0.001-0.24 0.001-16.46 0-31.173-7.475-40.931-19.216l-0.070-0.087c-7.468-9.089-11.995-20.841-11.995-33.65 0-3.747 0.387-7.404 1.124-10.932l-0.060 0.346c0.051 0 0.112 0 0.173 0 16.483 0 31.215 7.496 40.972 19.266l0.071 0.088zM570.778 493.696c3.209 14.832 12.626 26.995 25.333 33.84l0.267 0.131c-7.859 12.8-18.867 21.888-32.358 24.909-19.2 4.224-38.912-4.736-54.605-21.76-15.642 17.024-35.379 25.984-54.528 21.76-34.176-7.629-53.094-53.35-42.266-102.144 10.829-48.819 47.309-82.278 81.408-74.701 5.632 1.28 10.675 3.84 15.36 7.014 4.762-3.174 9.728-5.76 15.36-7.014 30.925-6.835 63.488 20.019 77.517 61.312-23.142 5.734-37.248 30.822-31.514 56.653z" />
<glyph unicode="&#xe919;" glyph-name="icon-minus-box" d="M896.38 960c70.483 0 127.62-57.249 127.62-127.62v-768.76c0-70.483-57.249-127.62-127.62-127.62h-768.76c-70.483 0-127.62 57.249-127.62 127.62v768.76c0 70.483 57.249 127.62 127.62 127.62h768.76zM832 512h-640v-128h640v128z" />
<glyph unicode="&#xe91a;" glyph-name="icon-radiobox-blank" d="M512 960c282.77 0 512-229.23 512-512s-229.23-512-512-512c-282.77 0-512 229.23-512 512s229.23 512 512 512zM512 896c-247.424 0-448-200.576-448-448s200.576-448 448-448c247.424 0 448 200.576 448 448s-200.576 448-448 448z" />
<glyph unicode="&#xe91b;" glyph-name="icon-radiobox-marked" d="M512 960c282.77 0 512-229.23 512-512s-229.23-512-512-512c-282.77 0-512 229.23-512 512s229.23 512 512 512zM512 896c-247.424 0-448-200.576-448-448s200.576-448 448-448c247.424 0 448 200.576 448 448s-200.576 448-448 448zM512 704c141.385 0 256-114.615 256-256s-114.615-256-256-256c-141.385 0-256 114.615-256 256s114.615 256 256 256z" />
<glyph unicode="&#xe91c;" glyph-name="icon-sigma-match" d="M913.908 221.047c-4.415 4.213-10.388 6.826-16.97 6.893h-0.013v0.025l-202.752-0.175c-12.466-1.525-22.026-12.047-22.026-24.801 0-13.775 11.152-24.946 24.92-24.976l202.805 0.175c12.364 1.625 21.81 12.096 21.81 24.774 0 7.11-2.971 13.526-7.739 18.075l-0.010 0.009zM330.452 221.047c-4.415 4.213-10.388 6.826-16.97 6.893h-0.013v0.025l-204.026-0.175c-12.466-1.526-22.026-12.047-22.026-24.801 0-13.784 11.166-24.96 24.946-24.976l204.027 0.175c12.364 1.625 21.81 12.096 21.81 24.774 0 7.11-2.971 13.526-7.739 18.075l-0.010 0.009zM850.569 755.924c-10.928 10.329-25.694 16.698-41.947 16.759l-612.189-0.125c-32.068-2.351-57.195-28.946-57.195-61.41 0-0.081 0-0.162 0-0.243v0.013-375.134l0.125-4.071c2.040-32.203 28.595-57.566 61.103-57.694h112.953l2.922 0.175c12.466 1.526 22.026 12.047 22.026 24.801 0 13.784-11.166 24.96-24.946 24.976l-114.964 0.2c-5.343 1.138-9.293 5.818-9.293 11.42 0 0.068 0.001 0.136 0.002 0.204v-0.010 375.134l0.2 2.148c0.895 5.429 5.494 9.538 11.076 9.665l610.217-0.2c5.32-1.168 9.242-5.841 9.242-11.43 0-0.065-0.001-0.129-0.002-0.194v0.010-375.134l-0.15-2.148c-0.897-5.437-5.508-9.55-11.102-9.665h-111.603l-2.897-0.175c-12.466-1.525-22.026-12.047-22.026-24.801 0-13.775 11.152-24.946 24.92-24.976h111.569l4.046 0.125c32.068 2.351 57.195 28.946 57.195 61.41 0 0.081 0 0.162 0 0.243v-0.013 375.134l-0.125 4.071c-1.022 16.195-8.169 30.546-19.127 40.908l-0.029 0.027zM522.315 678.525c-4.519 4.52-10.762 7.316-17.657 7.318v0l-0.025-0.025c-13.774-0.025-24.931-11.198-24.931-24.976 0-13.794 11.182-24.976 24.976-24.976s24.976 11.182 24.976 24.976c0 6.908-2.804 13.161-7.337 17.682v0zM514.747 469.904c-3.47 1.926-7.608 3.063-12.010 3.072h-115.615c-13.794 0-24.976-11.182-24.976-24.976v0-333.549c0-13.794 11.182-24.976 24.976-24.976v0h244.611c13.794 0 24.976 11.182 24.976 24.976v0 204.525c0 0.677-0.027 1.347-0.081 2.010l0.006-0.087-0.1 0.999v0.25l-0.1 0.599c-0.129 0.954-0.312 1.799-0.555 2.618l0.031-0.121-0.175 0.749c-0.252 0.875-0.507 1.588-0.8 2.282l0.050-0.134-0.375 0.874c-0.811 1.85-1.747 3.443-2.843 4.909l0.046-0.064-0.35 0.45c-0.648 0.856-1.319 1.614-2.043 2.318l-130.528 130.403-0.375 0.325-0.175 0.15-0.275 0.2-0.749 0.574c-0.511 0.377-1.105 0.773-1.719 1.141l-0.104 0.058-0.749 0.425zM412.098 423.049h65.636l0.025-104.073 0.15-2.897c1.513-12.479 12.040-22.053 24.804-22.053 0.008 0 0.015 0 0.023 0h104.022v-154.574h-194.66v283.598zM527.685 343.977l-0.025 43.782 43.782-43.782h-43.757z" />
<glyph unicode="&#xe91d;" glyph-name="icon-soc-settings" d="M483.674 870.541c-7.522-1.891-14.054-4.292-20.246-7.286l0.623 0.272c-5.082-2.547-74.995-42.253-155.379-88.23-109.645-62.72-148.186-85.581-154.278-91.52-11.277-11.008-20.71-26.099-25.178-40.294l-3.776-12.019v-354.982l3.776-12.019c2.909-8.493 6.418-15.821 10.653-22.653l-0.272 0.471c13.632-21.030 16.486-22.886 175.77-113.805 86.093-49.139 153.19-86.387 159.424-88.486 8.703-3 18.732-4.733 29.166-4.733 13.725 0 26.749 2.998 38.455 8.374l-0.574-0.236c14.848 6.733 190.438 107.405 195.123 111.859 6.528 6.208 5.158 15.411-8.525 57.229-16.96 51.789-40.090 97.459-69.926 137.997-14.554 19.763-50.867 56.294-66.406 66.79l-11.2 7.565 8.115 15.424c9.178 17.472 16.166 39.539 19.046 60.224l1.971 14.080h17.677c17.254 0 17.792 0.115 22.656 4.992 4.595 4.582 4.992 5.965 4.992 17.267 0 30.49-10.214 71.642-24.909 100.39-22.144 43.341-59.469 75.827-100.531 87.526-17.766 5.056-50.445 5.44-67.418 0.781-53.517-14.694-96.218-58.982-116.173-120.499-4.646-14.362-4.762-14.515-10.752-15.040-4.25-0.371-7.347-2.061-10.394-5.67-4.237-5.056-4.326-5.709-4.326-32.461v-27.315l4.979-4.979c2.752-2.752 6.17-4.992 7.616-4.992 1.613 0 3.328-2.586 4.429-6.669 4.685-17.421 24.653-37.594 45.082-45.555 7.386-2.867 8.832-4.314 12.659-12.634 2.368-5.158 6.106-12.25 8.294-15.744 2.189-3.507 3.981-7.027 3.981-7.821 0-0.806-6.336-5.542-14.080-10.534-8.947-5.747-21.581-16.602-34.611-29.722-29.658-29.85-48.102-58.432-64.64-100.186-8.96-22.579-9.574-28.352-3.763-35.11 3.238-3.763 5.542-4.749 11.085-4.749 9.229 0 11.891 3.11 18.893 22.106 22.31 60.582 60.493 107.686 106.816 131.763 24.23 12.608 25.587 17.728 10.266 38.912l-9.869 13.645 18.304 1.715 9.498-9.677c7.642-7.782 11.456-10.24 19.456-12.57 21.632-6.285 43.29 3.251 54.349 23.949 5.197 9.702 5.146 29.594-0.077 39.488-15.59 29.453-54.566 34.202-75.93 9.242-3.238-3.789-6.899-9.958-8.141-13.722l-2.266-6.848h-12.314c-7.782 0-12.966 0.781-14.080 2.138-5.67 6.874-7.334 52.531-2.79 76.608 6.899 36.621 29.043 70.669 53.952 82.982 42.33 20.928 88.973-11.29 105.805-73.075 3.418-12.557 3.904-18.253 3.827-44.275-0.077-25.075-0.666-31.974-3.725-43.008-4.864-17.536-13.555-35.802-22.989-48.307-14.054-18.65-12.915-24.384 6.963-35.059 49.062-26.342 96.32-86.413 128.115-162.816 8.512-20.429 22.643-63.885 21.427-65.856-2.214-3.571-176.218-101.402-185.498-104.294-12.736-3.968-25.203-3.955-36.685 0.013-12.045 4.16-299.405 168.435-308.442 176.32-3.955 3.456-9.818 11.136-13.043 17.075l-5.85 10.778v361.818l5.811 10.701c3.187 5.875 8.602 13.222 12.019 16.32 9.728 8.794 302.336 175.322 312.832 178.035 11.149 2.893 20.365 2.918 31.322 0.077 12.838-3.328 304.486-170.483 314.010-179.981 4.019-3.994 9.459-11.674 12.109-17.062l4.813-9.792 0.461-174.054c0.32-120.87-0.102-176.781-1.395-183.014-1.088-5.248-4.723-13.261-8.742-19.277-5.875-8.794-10.099-12.416-28.954-24.806-22.643-14.886-26.406-19.085-24.384-27.187 1.562-6.208 8.602-11.814 14.848-11.802 7.949 0 44.454 23.514 55.795 35.942 9.82 10.827 17.224 24.032 21.244 38.639l0.157 0.67c3.802 14.63 3.802 356.736 0 371.366-4.211 16.141-12.339 30.093-24.576 42.163-10.342 10.227-23.77 18.278-161.472 96.87-82.598 47.142-154.752 87.309-160.333 89.267-13.069 4.582-35.827 5.76-49.754 2.586zM525.658 693.926c31.232-9.83 60.506-37.056 78.336-72.883 10.15-20.403 15.872-40.32 19.699-68.506l0.986-7.258h-15.002l-1.229 9.792c-3.098 24.781-13.965 55.398-26.33 74.189-11.802 17.946-20.787 27.379-35.29 37.082-35.584 23.808-77.325 21.645-112-5.786-35.955-28.442-59.674-91.917-54.643-146.227 1.523-16.499 0.358-17.651-7.040-6.899-6.362 9.254-7.923 14.618-7.91 27.29 0.038 35.315 13.414 79.104 32.973 107.84 13.005 19.11 35.11 38.093 54.976 47.181 21.082 9.651 49.818 11.315 72.474 4.186zM499.622 484.595c10.586-12.032-3.686-29.67-18.010-22.259-5.696 2.944-7.155 5.734-7.155 13.632 0 13.606 15.974 19.085 25.165 8.627z" />
<glyph unicode="&#xe91e;" glyph-name="icon-soc-xs" d="M648.533 716.117c-35.797 51.755-89.429 89.515-153.728 89.515s-117.931-37.76-153.643-89.515c-35.883-51.925-56.704-121.301-56.704-195.968 0-64.939 15.659-126.165 43.648-175.403-90.624-57.045-160.299-157.995-198.144-278.016-1.245-3.824-1.963-8.224-1.963-12.792 0-0.003 0-0.006 0-0.009v0-1.579c0-23.564 19.103-42.667 42.667-42.667v0h537.771c23.564 0 42.667 19.103 42.667 42.667s-19.103 42.667-42.667 42.667v0h-477.013c41.515 95.659 105.301 164.736 176.213 195.541 15.238 6.736 25.678 21.718 25.678 39.139 0 10.747-3.974 20.566-10.532 28.068l0.043-0.050c-30.933 35.499-53.035 93.611-53.035 162.432 0 59.563 16.725 111.531 41.557 147.499 24.96 36.096 55.168 52.651 83.456 52.651 28.331 0 58.539-16.555 83.499-52.651 24.789-35.968 41.515-87.936 41.515-147.499 0-68.651-22.357-126.891-53.12-162.56-6.439-7.43-10.362-17.193-10.362-27.872 0-17.437 10.461-32.432 25.449-39.050l0.273-0.108c61.44-26.667 117.803-82.219 159.275-160.128 7.328-13.565 21.443-22.626 37.675-22.626 23.571 0 42.679 19.108 42.679 42.679 0 7.34-1.853 14.247-5.116 20.279l0.112-0.226c-39.125 73.472-92.075 134.571-155.307 174.293 27.861 49.109 43.776 110.293 43.776 175.317 0 74.667-20.779 144.043-56.661 195.968zM484.437 456.363c-11.093 0-22.144-9.728-22.144-24.277 0-14.507 11.093-24.235 22.187-24.235s22.144 9.728 22.144 24.235c0 14.549-11.093 24.277-22.187 24.277zM398.293 432.085c0 47.573 37.461 88.277 86.187 88.277 48.683 0 86.144-40.704 86.144-88.277s-37.461-88.235-86.187-88.235c-48.683 0-86.144 40.661-86.144 88.235zM323.115 751.445c-46.763-57.984-77.781-138.923-77.781-228.949 0-37.077 22.997-60.032 60.715-73.515 38.827-13.909 84.821-13.824 109.355-7.68 2.319 0.6 4.98 0.945 7.723 0.945 17.688 0 32.028-14.339 32.028-32.028 0-14.946-10.238-27.501-24.083-31.035l-0.222-0.048c-36.693-9.131-95.573-8.619-146.347 9.557-51.883 18.603-103.168 59.392-103.168 133.803 0 104.533 35.968 199.68 91.947 269.141 55.808 69.163 133.504 115.029 217.045 115.029s161.408-45.824 217.344-114.987c56.192-69.461 92.331-164.608 92.331-269.184 0-17.673-14.327-32-32-32s-32 14.327-32 32v0c0 90.027-31.147 170.923-78.080 228.907-47.104 58.283-108.075 91.264-167.595 91.264-59.435 0-120.235-32.981-167.253-91.221z" />
<glyph unicode="&#xe91f;" glyph-name="icon-windows-pc" d="M906.547 196.864c14.126-0.016 25.572-11.471 25.572-25.6 0-13.073-9.799-23.857-22.453-25.408l-0.124-0.012-2.995-0.179h-804.173c-14.126 0.016-25.572 11.471-25.572 25.6 0 13.073 9.799 23.857 22.453 25.408l0.124 0.012 2.995 0.179h804.173zM816.051 755.2c33.333-0.131 60.552-26.128 62.634-58.953l0.009-0.183 0.128-4.173v-384.486c0-0.071 0-0.154 0-0.238 0-33.28-25.752-60.546-58.417-62.956l-0.208-0.012-4.147-0.128h-623.36c-33.35 0.133-60.579 26.157-62.634 59.006l-0.009 0.181-0.128 4.147v251.93c0.016 14.126 11.471 25.572 25.6 25.572 13.073 0 23.857-9.799 25.408-22.453l0.012-0.124 0.179-2.995v-251.93c0-6.042 4.147-10.931 9.472-11.93l2.048-0.205h623.36c5.764 0.108 10.508 4.341 11.408 9.865l0.009 0.068 0.205 2.202v384.486c0.001 0.053 0.001 0.115 0.001 0.178 0 5.747-4.046 10.549-9.446 11.712l-0.079 0.014-2.048 0.205h-623.36c-5.754-0.097-10.492-4.324-11.383-9.84l-0.009-0.067-0.179-2.202v-42.47c-0.016-14.126-11.471-25.572-25.6-25.572-13.073 0-23.857 9.799-25.408 22.453l-0.012 0.124-0.179 2.995v42.47c0 0.077-0.001 0.168-0.001 0.26 0 33.27 25.757 60.524 58.419 62.909l0.206 0.012 4.147 0.128h623.36zM383.974 614.4h92.16v-92.16h-92.16v92.16zM383.974 476.16h92.16v-92.16h-92.16v92.16zM522.214 614.4h92.16v-92.16h-92.16v92.16zM522.214 476.16h92.16v-92.16h-92.16v92.16z" />
<glyph unicode="&#xe920;" glyph-name="icon-account-xs" d="M397.013 728.917c-28.885-40.277-48.085-98.133-48.085-163.84 0-75.605 25.515-140.459 61.653-180.181 6.878-7.548 11.090-17.629 11.090-28.695 0-17.618-10.678-32.742-25.916-39.253l-0.278-0.106c-84.053-35.2-158.464-114.219-206.123-222.549h685.525c23.564 0 42.667-19.103 42.667-42.667s-19.103-42.667-42.667-42.667v0h-746.88c-23.564 0-42.667 19.103-42.667 42.667v0 1.579c0 0.010 0 0.021 0 0.032 0 4.764 0.781 9.345 2.221 13.624l-0.088-0.301c43.733 132.907 123.947 243.541 227.285 304.896-32.555 53.803-51.157 121.6-51.157 193.621 0 81.579 23.68 157.227 64.085 213.589 40.32 56.235 99.84 96 169.941 96s129.579-39.765 169.941-96c40.363-56.32 64.085-132.011 64.085-213.589 0-71.893-18.389-139.221-50.645-192.768 64.469-35.755 109.653-82.517 163.797-154.709 5.327-7.042 8.533-15.947 8.533-25.6 0-23.564-19.103-42.667-42.667-42.667-13.911 0-26.267 6.657-34.056 16.959l-0.078 0.107c-61.312 81.749-103.253 119.637-176.768 150.443-15.516 6.617-26.194 21.741-26.194 39.359 0 11.065 4.212 21.147 11.121 28.729l-0.031-0.034c36.139 39.765 61.653 104.235 61.653 180.181 0 65.707-19.2 123.563-48.128 163.84-28.928 40.405-65.109 60.416-100.565 60.416-35.499 0-71.637-20.053-100.608-60.416z" />
<glyph unicode="&#xe921;" glyph-name="icon-bell" d="M488.192 915.584c-29.867-4.181-59.051-18.091-78.72-37.504-6.834-6.715-12.937-14.133-18.204-22.149l-0.313-0.507c-4.651-8.277-7.168-10.667-15.403-14.848-14.891-7.509-43.648-27.392-58.965-40.789-44.715-38.997-79.232-96.469-93.227-155.307-7.125-29.781-8.235-46.891-8.277-125.909-0.043-105.643 0.299-104.149-42.795-176.555-7.83-12.349-18.404-30.535-28.535-48.998l-3.337-6.639c-6.712-14.398-10.993-31.171-11.849-48.844l-0.012-0.308c-2.688-48.896 24.704-94.464 70.144-116.779 22.4-11.008 93.227-31.019 142.421-40.277 14.677-2.773 16.256-3.456 18.773-8.107 31.573-58.069 89.088-93.397 152.107-93.397 62.933 0 120.576 35.371 152.021 93.269 2.475 4.565 4.096 5.248 19.627 8.064 45.355 8.277 120.405 29.355 141.781 39.765 24.902 12.657 44.565 32.596 56.547 56.989l0.328 0.739c8.619 17.707 11.904 30.379 13.141 50.389 1.195 19.115-2.133 38.827-9.472 56.277-2.603 6.101-17.28 32.213-32.64 57.984-42.667 71.552-42.667 71.509-42.667 179.072 0 80.896-0.811 92.629-8.747 124.757-21.016 84.514-75.766 153.439-148.772 192.923l-1.585 0.784c-12.459 6.656-14.72 8.619-19.072 16.555-5.38 8.242-11.287 15.41-17.895 21.864l-0.025 0.024c-10.496 10.368-16.427 14.549-30.891 21.803-8.861 4.53-19.328 8.736-30.196 12.016l-1.377 0.357c-15.787 3.925-47.573 5.589-63.915 3.285zM537.643 787.541c35.936-4.812 68.166-17.605 95.862-36.543l-0.758 0.489c17.792-12.117 43.563-38.272 55.339-56.021 12.672-19.2 19.115-32.427 26.283-53.717 9.856-29.483 10.923-42.027 10.965-124.672 0-77.611 0.939-91.776 7.893-119.424 8.363-33.28 13.184-43.349 51.456-107.307 26.795-44.8 28.8-50.731 23.296-69.248-2.087-6.756-5.779-12.502-10.641-17.001l-0.025-0.023c-7.253-7.211-10.069-8.619-30.848-15.317-49.408-15.872-111.573-28.928-169.131-35.413-33.024-3.712-130.133-4.267-160.427-0.939-31.086 3.323-57.014 7.142-82.629 11.859l6.682-1.022c-44.501 8.149-115.541 27.904-127.787 35.456-16.299 10.069-23.083 26.795-18.133 44.629 0.939 3.371 13.312 25.643 27.477 49.493 37.632 63.317 43.819 76.8 52.949 115.072 3.413 14.293 3.755 21.717 4.907 105.813 1.323 95.488 1.408 96.512 10.24 125.696 29.056 96.256 127.36 160.384 227.029 148.139z" />
<glyph unicode="&#xe922;" glyph-name="icon-cloud-apps-no-hexagon" d="M360.781 581.146c32.538 86.656 116.25 148.454 214.323 148.454 79.322 0 149.171-40.371 190.17-101.53 1.628-2.401 2.6-5.362 2.6-8.55 0-8.484-6.877-15.361-15.361-15.361-5.296 0-9.965 2.68-12.727 6.757l-0.035 0.054c-35.533 53.018-96 87.91-164.646 87.91-86.682 0-160.486-55.795-187.315-133.376 0.033-0.379 0.052-0.819 0.052-1.265 0-8.483-6.877-15.36-15.36-15.36-0.877 0-1.737 0.074-2.574 0.215l0.090-0.013c-7.821 1.28-15.693 1.958-23.629 1.958-71.846 0-131.392-52.186-143.194-120.627-1.265-7.154-7.34-12.548-14.712-12.748h-0.021c-59.072-1.562-106.522-49.856-106.522-109.184s49.024-109.312 109.312-109.312h575.104c97.242 0 176 78.758 176 176s-78.758 176-176 176c-60.736 0-114.304-30.694-145.997-77.594-2.814-3.983-7.399-6.552-12.583-6.552-8.483 0-15.36 6.877-15.36 15.36 0 3.123 0.932 6.028 2.533 8.452l-0.036-0.057c37.171 54.989 100.096 91.11 171.443 91.11 114.214 0 206.72-92.506 206.72-206.72s-92.506-206.72-206.72-206.72h-575.104c-77.44 0-140.032 63.936-140.032 140.032 0 71.936 54.374 131.098 124.173 139.046 18.829 76.928 88.090 134.234 170.995 134.234 4.851 0 9.651-0.205 14.413-0.614z" />
<glyph unicode="&#xe923;" glyph-name="icon-coro-mail" d="M505.562 866.982c-5.65-1.582-10.466-3.4-15.076-5.582l0.574 0.244c-12.595-6.49-292.813-167.040-299.366-171.533l-7.13-4.89h-46.259c-50.714 0-56.576-0.922-59.814-9.408-2.253-5.952-2.33-442.662-0.064-448.614 3.507-9.242-18.176-8.678 373.491-9.6l364.032-0.858-127.667-72.96c-70.208-40.128-131.878-74.573-137.037-76.531-13.274-5.056-30.694-4.8-43.814 0.627-5.466 2.266-53.709 29.312-107.213 60.109-106.573 61.338-106.214 61.171-114.534 51.507-4.992-5.811-5.235-12.877-0.627-18.739 3.814-4.838 196.301-115.597 211.776-121.843 19.341-7.821 43.021-8.269 64.102-1.229 13.658 4.57 306.675 172.774 317.082 182.016 11.469 10.202 20.672 24.013 26.355 39.539l4.429 12.122v358.4l-4.134 12.621c-5.043 15.411-14.63 30.131-26.33 40.435-10.010 8.832-301.632 176.461-316.838 182.131-12.314 4.595-42.803 5.709-55.936 2.035zM548.070 837.082c6.477-1.792 293.85-165.248 305.139-173.555 13.67-10.061 21.427-23.309 23.974-40.947 2.33-16.064 2.291-328.973-0.038-343.322-1.754-10.803-6.451-22.234-11.482-27.955-2.483-2.829-22.746-2.982-380.378-2.982h-377.766v297.19l9.818-7.578c9.651-7.45 349.722-200.141 370.15-209.741 16.742-7.859 34.419-10.803 51.814-8.614 7.987 0.998 19.123 3.546 24.755 5.645 6.81 2.534 53.376 32.64 139.085 89.894 70.874 47.347 130.202 87.642 131.84 89.536 3.674 4.25 3.878 13.005 0.422 17.933-3.674 5.261-13.235 8.115-18.253 5.478-2.163-1.139-61.261-40.32-131.341-87.053-137.126-91.469-135.859-90.739-157.862-90.611-20.109 0.115 3.136-12.070-259.149 135.962-69.466 39.206-129.126 73.523-132.595 76.262-9.19 7.258-18.406 20.646-23.142 33.613-3.354 9.165-4.326 15.846-5.094 34.803l-0.96 23.462h650.56l4.71 4.045c6.49 5.594 6.515 14.72 0.051 21.184l-4.646 4.646-512.589 1.702 130.458 74.522c71.77 40.986 133.158 75.29 136.448 76.224 7.962 2.253 28.339 2.406 36.070 0.256zM512.589 599.936c-15.898-3.392-26.701-11.981-33.306-26.496-3.456-7.603-3.955-11.789-4.531-38.208l-0.64-29.67-13.312-12.659v-34.867c0-27.75 0.512-35.597 2.483-38.413 3.866-5.53 59.366-36.48 65.408-36.48 3.366 0 15.424 5.901 35.123 17.178 28.134 16.102 30.106 17.562 31.757 23.462 2.381 8.576 2.266 61.517-0.154 68.442-1.126 3.264-4.518 7.142-8.358 9.562l-6.451 4.070-0.755 28.672c-0.858 32.218-2.726 39.974-12.403 51.277-3.983 4.293-8.74 7.805-14.057 10.326l-0.279 0.119c-9.715 4.186-29.67 5.99-40.525 3.686zM545.651 571.52c2.967-2.457 5.285-5.593 6.729-9.176l0.055-0.155c1.92-5.466 3.162-40.806 1.434-40.806-0.435 0-5.824 2.778-11.981 6.157-12.915 7.091-15.027 6.963-30.323-2.010-5.491-3.213-10.829-5.85-11.853-5.85-1.306 0-1.574 5.709-0.883 18.829 1.165 22.118 4.147 29.952 13.171 34.598 8.269 4.262 26.957 3.379 33.651-1.587z" />
<glyph unicode="&#xe924;" glyph-name="icon-desltop" d="M176.077 752.538c-20.429-5.504-38.221-23.322-43.75-43.853-2.278-8.474-2.765-16.461-2.33-39.117 0.614-31.078 1.229-33.126 12.314-41.421 6.682-4.966 20.531-4.838 27.725 0.307 9.37 6.682 10.88 12.416 10.88 41.318 0 25.165 0.102 25.958 4.173 30.029l4.198 4.198h630.067l8.371-8.371v-196.173c0-190.592-0.077-196.25-3.251-200.166l-3.277-4.045h-633.754l-3.277 4.045c-3.149 3.891-3.251 8.576-3.251 134.81-0.026 121.165-0.23 131.251-2.995 136.653-8.525 16.717-32.563 18.33-43.546 2.893l-3.814-5.325v-276.48l4.582-9.754c9.051-19.655 27.154-33.783 48.817-37.125l0.36-0.046c7.731-1.28 106.982-1.69 327.68-1.357l316.595 0.486 9.805 3.968c13.696 5.53 27.162 18.355 34.099 32.41l5.581 11.341 0.461 203.981c0.461 200.499 0.41 204.186-2.995 215.091-4.326 13.978-12.851 25.6-24.346 33.178-18.048 11.93 5.171 11.187-347.674 11.085-270.874-0.102-319.718-0.486-327.45-2.56zM493.696 663.194c-18.125-8.422-19.123-33.946-1.766-44.544 6.144-3.738 16.563-4.429 22.323-1.485 13.056 6.733 18.637 19.354 13.952 31.642-5.53 14.464-20.736 20.787-34.509 14.387zM92.928 194.714c-6.17-2.688-14.003-11.494-15.488-17.434-2.714-10.829 3.456-23.757 13.67-28.595 5.325-2.534 40.96-2.765 414.31-2.765 404.608 0 408.55 0.051 414.054 3.405 7.422 4.448 12.312 12.449 12.312 21.591 0 9.667-5.468 18.058-13.48 22.247l-0.138 0.066-7.347 3.891-406.349-0.077c-333.978-0.051-407.27-0.461-411.546-2.33z" />
<glyph unicode="&#xe925;" glyph-name="icon-devices-no-hexagon" d="M89.6 695.808c0 32.602 26.125 59.392 58.752 59.392h726.784c32.627 0 58.752-26.79 58.752-59.392v-422.144c0-32.602-26.125-59.392-58.752-59.392h-726.784c-32.627 0-58.752 26.79-58.752 59.392v22.144c0 8.483 6.877 15.36 15.36 15.36v0h754.432c8.483 0 15.36-6.877 15.36-15.36s-6.877-15.36-15.36-15.36h-739.072v-6.784c0-16.038 12.787-28.672 28.032-28.672h726.784c15.245 0 28.032 12.634 28.032 28.672v422.144c0 16.038-12.787 28.672-28.032 28.672h-726.784c-15.245 0-28.032-12.634-28.032-28.672v-338.944c0-8.483-6.877-15.36-15.36-15.36s-15.36 6.877-15.36 15.36v0 338.944zM403.968 155.648c0 8.483 6.877 15.36 15.36 15.36v0h182.016c8.483 0 15.36-6.877 15.36-15.36s-6.877-15.36-15.36-15.36v0h-182.016c-8.483 0-15.36 6.877-15.36 15.36v0zM529.536 673.536c0-10.604-8.596-19.2-19.2-19.2s-19.2 8.596-19.2 19.2v0c0 10.604 8.596 19.2 19.2 19.2s19.2-8.596 19.2-19.2v0z" />
<glyph unicode="&#xe926;" glyph-name="icon-devices-xs" d="M42.667 149.333c0 23.564 19.103 42.667 42.667 42.667v0h853.333c23.564 0 42.667-19.103 42.667-42.667s-19.103-42.667-42.667-42.667v0h-853.333c-23.564 0-42.667 19.103-42.667 42.667v0zM85.333 747.435c0 45.611 36.395 84.565 83.541 84.565h686.251c47.147 0 83.541-38.955 83.541-84.565v-428.203c0-45.611-36.395-84.565-83.541-84.565h-686.251c-47.147 0-83.541 38.955-83.541 84.565v237.227c0 23.564 19.103 42.667 42.667 42.667s42.667-19.103 42.667-42.667v0-236.459h682.667v426.667h-682.667v-46.549c0-23.564-19.103-42.667-42.667-42.667s-42.667 19.103-42.667 42.667v0 47.317zM670.165 691.499c7.718-7.721 12.492-18.386 12.492-30.165s-4.774-22.445-12.492-30.165l-256-256c-7.665-7.41-18.12-11.977-29.641-11.977-23.564 0-42.667 19.103-42.667 42.667 0 11.521 4.567 21.976 11.989 29.653l255.988 255.988c7.721 7.718 18.386 12.492 30.165 12.492s22.445-4.774 30.165-12.492v0z" />
<glyph unicode="&#xe927;" glyph-name="icon-edr-hexagon" d="M140.8 619.833c8.483 0 15.36-6.877 15.36-15.36v0-326.542c0-22.002 11.847-42.354 31.147-53.419l285.468-163.271c8.982-5.215 19.765-8.293 31.268-8.293s22.285 3.078 31.571 8.455l-0.303-0.162 185.785 106.254c2.263 1.386 5.002 2.207 7.932 2.207 8.483 0 15.36-6.877 15.36-15.36 0-5.797-3.212-10.844-7.953-13.459l-0.079-0.040-185.785-106.283c-13.364-7.769-29.411-12.354-46.528-12.354s-33.164 4.585-46.978 12.595l0.45-0.241-285.483 163.3c-27.992 16.184-46.538 45.956-46.592 80.063v326.55c0 8.483 6.877 15.36 15.36 15.36v0zM163.143 768.64l106.78-193.323 64.839 123.108c2.629 4.911 7.724 8.196 13.587 8.196 4.972 0 9.392-2.362 12.199-6.026l0.027-0.037 0.967-1.465 101.476-170.724c11.529 5.605 25.080 8.882 39.397 8.882 50.71 0 91.819-41.109 91.819-91.819 0-30.227-14.606-57.042-37.145-73.773l-0.247-0.175 89.344-150.357 65.323 124.018c2.628 4.916 7.725 8.204 13.591 8.204 5.155 0 9.717-2.54 12.503-6.436l0.032-0.047 0.91-1.451 120.533-218.24c1.081-2.048 1.715-4.476 1.715-7.052 0-8.483-6.877-15.36-15.36-15.36-5.608 0-10.515 3.006-13.196 7.494l-0.039 0.070-106.795 193.308-64.811-123.093c-2.628-4.916-7.725-8.204-13.591-8.204-4.969 0-9.388 2.36-12.195 6.020l-0.027 0.037-0.996 1.451-104.42 175.758c-8.1-2.591-17.417-4.085-27.083-4.085-50.71 0-91.819 41.109-91.819 91.819 0 25.562 10.445 48.684 27.301 65.331l0.009 0.009-88.619 149.148-65.308-124.018c-2.627-4.918-7.726-8.207-13.593-8.207-5.163 0-9.731 2.547-12.516 6.454l-0.032 0.047-0.896 1.436-120.562 218.24c-1.204 2.141-1.913 4.7-1.913 7.424 0 8.483 6.877 15.36 15.36 15.36 5.759 0 10.778-3.169 13.407-7.859l0.040-0.077v0.014zM550.556 847.801l285.44-163.271c28.031-16.154 46.607-45.938 46.649-80.065v-326.548c0-8.483-6.877-15.36-15.36-15.36s-15.36 6.877-15.36 15.36v0 326.542c-0.041 22.773-12.448 42.64-30.863 53.246l-0.298 0.158-285.468 163.257c-8.978 5.223-19.759 8.306-31.26 8.306s-22.283-3.083-31.562-8.468l0.302 0.162-200.263-114.56c-2.191-1.275-4.823-2.028-7.63-2.028-8.488 0-15.368 6.881-15.368 15.368 0 5.68 3.082 10.641 7.665 13.301l0.074 0.039 200.249 114.532c13.363 7.783 29.412 12.377 46.535 12.377s33.172-4.594 46.983-12.618l-0.448 0.24v0.014zM502.343 506.468c-0.555 0.018-1.207 0.028-1.862 0.028-33.744 0-61.099-27.355-61.099-61.099s27.355-61.099 61.099-61.099c0.030 0 0.059 0 0.089 0h-0.005c33.702 0.056 61.001 27.389 61.001 61.099 0 33.089-26.304 60.035-59.142 61.068l-0.095 0.002z" />
<glyph unicode="&#xe928;" glyph-name="icon-endpoint-data-governance" d="M519.258 866.906c-11.75-3.162-8.448-1.382-108.582-58.637l-86.81-49.651-79.59-0.038c-43.763-0.013-84.416-0.73-90.317-1.587-20.749-2.995-37.402-15.219-46.144-33.882l-4.557-9.728-0.474-177.702c-0.307-117.338 0.128-179.264 1.28-182.272 1.037-2.739 4.122-5.555 7.706-7.066 5.261-2.189 6.72-2.189 11.981 0 3.533 1.485 6.669 4.326 7.68 6.963 1.075 2.854 1.69 66.995 1.69 177.472 0 117.837 0.576 174.528 1.818 177.805 2.688 7.142 11.725 15.706 18.586 17.6 3.853 1.075 114.56 1.69 304.307 1.702l298.266 0.013 55.283-31.616c33.6-19.213 57.882-34.214 61.914-38.246 3.648-3.648 8.909-10.739 11.686-15.744l5.043-9.114 0.461-178.24c0.499-196.224 0.998-186.266-9.946-201.37l-5.043-6.95-355.405 0.064c-195.469 0.051-358.746 0.73-362.829 1.523-8.23 1.587-14.438 5.581-19.763 12.71-2.893 3.866-3.61 7.693-4.006 21.235-0.269 9.088-0.845 18.227-1.306 20.314-1.306 6.080-7.526 10.714-14.323 10.65-12.045-0.102-15.462-6.259-15.462-27.84 0-32.666 12.058-53.248 37.261-63.616l9.677-3.981 339.533-0.038c208.205-0.026 338.918-0.653 337.92-1.613-3.405-3.328-251.264-144.371-260.173-148.058-11.085-4.582-29.222-5.286-41.485-1.6-4.326 1.306-42.496 22.234-84.8 46.515l-76.928 44.134 321.267 1.702 3.264 4.032c4.634 5.722 4.314 15.718-0.653 20.39l-3.93 3.686-385.203 0.166-3.827-3.61c-5.107-4.8-6.042-10.765-2.675-17.242 2.291-4.416 20.339-15.373 106.854-64.858 57.267-32.742 108.339-61.171 113.498-63.168 6.758-2.598 14.656-3.84 28.16-4.416 16.909-0.73 20.070-0.371 31.898 3.61 9.37 3.149 56.179 29.030 162.995 90.138 166.707 95.373 164.403 93.837 176.858 118.554 11.802 23.45 11.571 19.008 11.034 212.237l-0.486 173.222-4.442 12.122c-5.658 15.462-14.989 29.504-26.125 39.322-5.504 4.851-62.221 38.31-152.090 89.702-158.336 90.534-159.603 91.238-172.096 94.566-11.226 2.982-36.89 2.854-48.448-0.269zM566.618 834.829c5.158-2.15 37.798-20.186 72.525-40.064l63.155-36.147-157.875 0.026c-155.059 0.026-157.773 0.090-152.742 3.226 20.48 12.8 127.654 72.845 133.12 74.573 11.507 3.635 31.027 2.893 41.818-1.613zM534.848 693.798c-6.349-2.573-10.906-10.112-10.906-18.061 0-15.706 18.278-23.757 30.541-13.453 16.23 13.658 0.128 39.501-19.635 31.514zM222.874 495.654c-2.432-2.893-4.416-7.053-4.416-9.254s1.984-6.362 4.416-9.254l4.416-5.248h46.464c44.314 0 46.63 0.154 50.176 3.456 6.925 6.464 6.874 15.68-0.115 22.195-3.405 3.174-6.234 3.354-50.061 3.354h-46.464l-4.416-5.248zM386.483 496.717c-2.587-2.475-4.195-5.955-4.195-9.81 0-0.178 0.003-0.356 0.010-0.532l-0.001 0.025c0-4.237 1.293-7.424 4.186-10.317l4.186-4.186h396.262l4.186 4.186c2.64 2.64 4.273 6.288 4.273 10.317s-1.633 7.676-4.273 10.317l-4.186 4.186h-396.262l-4.186-4.186zM220.032 432.768c-3.405-3.405-4.992-6.694-4.992-10.368s1.587-6.963 4.992-10.368l4.979-4.992h279.258c297.882 0 286.886-0.294 289.984 7.757 1.357 3.546 1.357 11.661 0 15.206-3.098 8.051 7.898 7.757-289.984 7.757h-279.258l-4.979-4.992zM227.699 370.509c-10.010-4.403-11.584-18.074-2.854-24.934 4.211-3.302 7.219-3.392 127.565-3.392h123.251l4.518 4.186c5.939 5.517 6.106 14.246 0.397 20.902l-4.122 4.787-121.741 0.371c-99.162 0.307-122.726-0.051-127.014-1.92zM540.083 368.717c-2.587-2.475-4.195-5.955-4.195-9.81 0-0.178 0.003-0.356 0.010-0.532l-0.001 0.025c0-4.237 1.293-7.424 4.186-10.317l4.186-4.186h242.662l4.186 4.186c2.587 2.475 4.195 5.955 4.195 9.81 0 0.178-0.003 0.356-0.010 0.532l0.001-0.025c0 4.237-1.293 7.424-4.186 10.317l-4.186 4.186h-242.662l-4.186-4.186z" />
<glyph unicode="&#xe929;" glyph-name="icon-file-empty" d="M269.722 802.56c-4.47-2.214-8.089-5.569-10.561-9.691l-0.063-0.114c-2.995-5.734-3.098-19.174-2.688-343.347l0.435-337.382 3.61-4.813c1.971-2.637 6.195-6.349 9.37-8.218 5.709-3.379 9.37-3.43 235.341-3.942 162.048-0.384 232.115 0.026 238.259 1.331 8.547 1.713 15.526 7.251 19.18 14.714l0.071 0.16c2.611 5.069 2.739 472.55 0.128 479.565-2.381 6.426-205.67 210.099-212.787 213.197-4.531 1.971-28.288 2.381-139.136 2.381h-133.683l-7.475-3.84zM602.88 682.24c40.115-40.115 72.96-73.523 72.96-74.24 0-0.691-24.909-1.28-55.373-1.28h-55.373l-0.512 37.12c-0.486 33.997-0.819 37.504-3.942 41.677-5.171 6.861-11.597 9.958-20.736 9.933-11.136 0-18.662-4.787-22.989-14.566-3.174-7.194-3.354-10.854-2.867-57.856 0.486-47.59 0.691-50.432 4.019-54.912 1.946-2.586 5.658-6.298 8.243-8.218 4.608-3.43 6.835-3.533 95.898-3.994l91.187-0.461v-409.523h-406.195v609.28h222.694l72.986-72.96z" />
<glyph unicode="&#xe92a;" glyph-name="icon-file" d="M539.827 806.4l1.51-0.051 1.485-0.128 1.536-0.23 1.331-0.256 2.765-0.819 1.715-0.691 3.379-1.792 2.304-1.664 2.074-1.869 199.398-199.398c0.768-0.768 1.459-1.536 2.099-2.381l-2.099 2.381c2.278-2.278 4.096-4.966 5.376-7.91l0.307-0.691c0.8-1.897 1.378-4.098 1.629-6.396l0.009-0.106 0.077-1.51 0.102-1.485v-460.16c0-12.928-9.779-23.91-22.605-25.421l-2.995-0.179h-457.626c-12.928 0-23.91 9.779-25.421 22.605l-0.179 2.995v659.558c0 12.928 9.779 23.91 22.605 25.421l2.995 0.179h258.227zM529.203 755.2h-222.003v-608.358h406.426l-0.026 408.986-173.773-0.026c-12.928 0-23.91 9.779-25.421 22.605l-0.179 2.995v89.446c0.087 14.098 11.5 25.502 25.593 25.574h0.007c12.902 0 23.885-9.754 25.421-22.579l0.179-2.995-0.026-63.846 111.949 0.026-148.147 148.173zM630.298 319.027c14.029-0.026 25.549-11.571 25.549-25.6 0-12.902-9.754-23.885-22.579-25.421l-2.97-0.179h-239.949c-14.029 0-25.6 11.546-25.6 25.6 0 13.005 9.882 24.038 22.81 25.446l2.995 0.154h239.744zM630.298 407.91c14.029-0.026 25.549-11.571 25.549-25.6 0-12.902-9.754-23.885-22.579-25.421l-2.97-0.179h-239.744c-14.098 0.087-25.502 11.5-25.574 25.593v0.007c0 12.902 9.754 23.885 22.579 25.421l2.995 0.179h239.744zM471.782 496.794c14.029-0.026 25.549-11.571 25.549-25.6 0-12.902-9.754-23.885-22.579-25.421l-2.97-0.179h-81.229c-14.098 0.087-25.502 11.5-25.574 25.593v0.007c0 12.902 9.754 23.885 22.579 25.421l2.995 0.179h81.229z" />
<glyph unicode="&#xe92b;" glyph-name="icon-firewall-disabled" d="M509.591 446.413l3.226-0.794 105.702-33.562 1.843-0.333c7.706-1.766 12.902-6.451 16.973-12.646l1.715-2.739c2.099-3.661 3.738-7.68 5.222-12.211 1.28-3.891 2.253-7.603 2.97-10.726l0.64-2.918 0.512-4.301c1.408-49.382-3.2-91.52-13.773-127.232-1.923-6.51-6.351-11.991-12.314-15.237s-12.972-3.988-19.482-2.068l-1.894 0.691 60.237-60.237c4.639-4.595 7.347-10.793 7.57-17.318 0.22-6.528-2.061-12.895-6.38-17.795-4.316-4.9-10.345-7.964-16.847-8.566-6.505-0.602-12.992 1.306-18.135 5.33l-2.406 2.15-32.666 32.614c-19.072-22.349-42.752-39.654-70.963-52.736-3.648-1.687-7.642-2.493-11.656-2.35-4.017 0.143-7.944 1.229-11.461 3.169-93.773 51.661-135.757 140.365-125.363 261.043 0.248 2.829 0.965 5.599 2.125 8.192l-27.238 27.29c-4.593 4.608-7.258 10.788-7.455 17.29-0.2 6.5 2.084 12.833 6.385 17.713 4.303 4.877 10.299 7.936 16.776 8.553 6.474 0.617 12.941-1.254 18.086-5.233l2.406-2.125 39.398-39.424c-0.282 5.020 0.919 10.015 3.456 14.356 2.534 4.342 6.292 7.844 10.803 10.066l2.765 1.152 56.166 19.866c4.186 1.485 8.684 1.856 13.056 1.075zM422.525 328.32c0.947-77.056 29.952-132.608 87.578-169.267l1.382-0.845 1.69 0.896c16.43 9.065 30.953 21.217 42.778 35.789l-133.427 133.427zM906.545 222.464c6.525-0.008 12.8-2.506 17.546-6.984 4.744-4.48 7.598-10.604 7.982-17.116 0.381-6.513-1.738-12.928-5.926-17.93-4.188-5.005-10.127-8.22-16.607-8.991l-2.995-0.179h-204.877c-6.523 0.013-12.795 2.516-17.533 6.999-4.741 4.48-7.59 10.601-7.969 17.114s1.741 12.923 5.929 17.923c4.188 5.002 10.127 8.215 16.604 8.986l2.97 0.179h204.877zM308.503 222.464c6.525-0.008 12.8-2.506 17.546-6.984 4.744-4.48 7.598-10.604 7.982-17.116 0.381-6.513-1.738-12.928-5.926-17.93-4.188-5.005-10.127-8.22-16.607-8.991l-2.995-0.179h-206.131c-6.525 0.008-12.801 2.506-17.545 6.984-4.744 4.48-7.6 10.604-7.982 17.116s1.737 12.928 5.925 17.93c4.188 5.005 10.128 8.22 16.607 8.991l2.995 0.179h206.131zM505.495 394.214l-48.051-16.998c-3.2-1.137-6.595-1.626-9.984-1.434l138.701-138.701c-2.002 5.245-2.22 11.003-0.614 16.384 8.166 27.648 12.237 60.877 11.853 100.301l-0.179 8.627-0.742 2.944-90.982 28.877zM816.023 780.8c15.997-0.061 31.375-6.206 43.008-17.188s18.655-25.979 19.635-41.948l0.128-4.173v-384.512c0.059-16.003-5.962-31.429-16.845-43.159-10.885-11.73-25.818-18.885-41.779-20.022l-4.147-0.128h-114.355c-6.523 0.013-12.795 2.516-17.533 6.999-4.741 4.48-7.59 10.601-7.969 17.114s1.741 12.923 5.929 17.923c4.188 5.002 10.127 8.215 16.604 8.986l2.97 0.179h114.381c2.76 0.051 5.414 1.070 7.498 2.883 2.081 1.81 3.461 4.298 3.894 7.025l0.179 2.202v384.512c0.044 2.778-0.881 5.484-2.614 7.655s-4.165 3.673-6.884 4.249l-2.074 0.205h-623.386c-2.756-0.056-5.404-1.079-7.482-2.89s-3.453-4.295-3.885-7.017l-0.205-2.202v-384.512c0-6.016 4.173-10.906 9.523-11.904l2.048-0.205h115.789c6.525-0.008 12.8-2.506 17.546-6.984 4.744-4.48 7.598-10.604 7.982-17.116 0.381-6.513-1.738-12.928-5.926-17.93-4.188-5.005-10.127-8.22-16.607-8.991l-2.995-0.179h-115.763c-15.998 0.061-31.375 6.205-43.008 17.188s-18.653 25.979-19.635 41.948l-0.128 4.173v384.512c-0.060 16.002 5.961 31.428 16.845 43.158s25.818 18.887 41.779 20.023l4.173 0.128h623.309zM530.071 666.186c0-6.792-2.698-13.307-7.501-18.109-4.805-4.803-11.32-7.503-18.112-7.503-6.794 0-13.307 2.701-18.112 7.503-4.803 4.803-7.501 11.318-7.501 18.109s2.698 13.302 7.498 18.104c4.8 4.8 11.313 7.496 18.102 7.496s13.302-2.696 18.102-7.496c4.8-4.803 7.498-11.313 7.498-18.104z" />
<glyph unicode="&#xe92c;" glyph-name="icon-folder-locked" d="M389.069 755.2c33.178 0 61.594-20.301 73.523-49.152l1.741-4.762h311.27c53.174-0.012 96.606-41.709 99.394-94.19l0.011-0.248 0.128-5.12v-386.816c-0.002-13.082-9.815-23.871-22.482-25.409l-0.123-0.012-2.995-0.179h-695.936c-13.082 0.002-23.871 9.815-25.409 22.482l-0.012 0.123-0.179 2.995v455.91c0 3.251 0.589 6.349 1.715 9.216 8.433 41.496 43.521 72.663 86.288 75.023l0.24 0.011 4.941 0.128h167.859zM389.069 704h-167.859c-21.965 0-40.013-16.896-41.856-38.374l-0.154-3.61v-5.453c0-2.97-0.512-5.811-1.434-8.448l1.434-2.893v-404.71h644.736v361.216c-0.014 25.359-19.536 46.154-44.37 48.193l-0.174 0.011-3.789 0.154h-332.621c-13.082 0.002-23.871 9.815-25.409 22.482l-0.012 0.123-0.179 2.995c0 14.592-11.034 26.624-25.242 28.16l-3.072 0.154zM635.648 601.6c16.563 0 29.952-13.414 29.952-29.952v-247.296c0-16.542-13.41-29.952-29.952-29.952v0h-247.296c-16.542 0-29.952 13.41-29.952 29.952v0 247.296c0 16.538 13.414 29.952 29.952 29.952zM520.269 570.291c-2.063 1.214-4.545 1.931-7.194 1.931s-5.131-0.717-7.261-1.968l0.068 0.037-94.848-54.784c-4.326-2.531-7.187-7.151-7.194-12.441v-109.518c0-5.146 2.714-9.882 7.168-12.467l94.874-54.758c4.454-2.56 9.933-2.56 14.387 0l94.848 54.784c4.454 2.56 7.194 7.296 7.194 12.442v109.491c0 5.146-2.739 9.882-7.168 12.467zM506.189 520.858c4.429 2.56 9.933 2.56 14.387 0l52.813-30.259c4.429-2.534 7.168-7.245 7.168-12.365v-60.467c0-5.12-2.739-9.83-7.168-12.365l-52.813-30.259c-4.454-2.56-9.958-2.56-14.387 0l-52.838 30.259c-4.312 2.505-7.166 7.101-7.168 12.364v0 60.442c0 5.12 2.739 9.83 7.168 12.365z" />
<glyph unicode="&#xe92d;" glyph-name="icon-folder" d="M225.741 727.014c-16.154-3.507-32.614-13.005-45.312-26.163-17.613-18.253-26.752-40.474-26.803-65.28-0.026-12.39 3.277-19.328 12.467-26.138 6.554-4.864 19.635-4.89 26.112-0.051 8.781 6.579 11.213 11.571 12.698 26.266 2.176 21.683 13.158 36.352 30.797 41.088 4.147 1.126 39.398 1.587 97.741 1.28 89.574-0.461 91.366-0.538 96.077-4.045 7.552-5.581 12.006-13.44 13.235-23.373 1.408-11.162 5.837-18.842 13.286-22.886 5.274-2.893 16.384-3.123 183.117-3.917l177.485-0.87 7.936-4.659c9.395-5.53 16.026-12.979 20.915-23.501 3.558-7.629 3.584-8.525 3.584-193.69v-186.035l-644.275-0.87v322.534l579.686 0.896 6.118 4.659c15.949 12.186 13.44 34.304-4.992 43.776-2.714 1.382-86.374 1.92-307.814 1.92-336.717 0-311.168 0.87-319.539-10.88l-3.814-5.35v-195.712c0-194.995 0.026-195.738 3.533-200.422 1.92-2.586 5.632-6.298 8.218-8.243l4.71-3.507 707.251-0.896 7.526 3.866c4.173 2.125 9.139 6.016 11.059 8.678 3.507 4.787 3.533 5.965 3.968 206.054 0.512 224.845 0.998 214.554-11.469 239.846-12.006 24.397-36.634 44.006-64 50.995-8.755 2.253-32.768 2.611-172.442 2.611h-162.253l-5.069 10.65c-9.702 20.454-32.691 38.042-55.194 42.24-14.72 2.739-191.36 1.997-204.544-0.87z" />
<glyph unicode="&#xe92e;" glyph-name="icon-globe" d="M519.373 780.8c187.853 0 340.147-152.294 340.147-340.147s-152.294-340.147-340.147-340.147c-187.853 0-340.173 152.294-340.173 340.147s152.32 340.147 340.173 340.147h-0.051zM519.373 272.845c-26.112 0-51.968-1.664-77.491-4.915l3.149-11.162c19.226-64.333 47.206-105.062 74.342-105.062s55.091 40.73 74.317 105.062l3.149 11.162c-23.212 3.129-50.043 4.915-77.291 4.915-0.070 0-0.141 0-0.211 0h0.011zM647.757 259.174l-1.408-5.299c-9.344-33.792-21.325-63.437-35.533-87.424 44.573 15.176 82.637 39.389 113.618 70.636l0.020 0.020c-20.769 7.885-46.431 15.482-72.751 21.331l-3.946 0.736zM390.938 259.149l-0.87-0.179c-29.979-6.575-55.329-14.091-79.918-23.177l4.142 1.34c30.979-31.274 69.028-55.488 111.556-70.051l2.031-0.605c-14.925 25.242-27.392 56.704-36.941 92.672zM369.664 415.002l-138.138 0.051c4.403-50.176 21.632-96.691 48.384-136.192 32.486 12.8 65.946 22.938 100.147 30.336l-2.56 15.974c-4.070 26.197-6.885 57.23-7.808 88.737l-0.026 1.119zM807.194 415.027h-138.112c-1.151-41.246-5.461-80.653-12.71-119.022l0.729 4.641 1.536 8.55c34.202-7.424 67.686-17.536 100.173-30.31 26.358 38.404 43.786 84.858 48.304 135.033l0.080 1.107zM617.83 415.027h-196.966c0.41-11.52 1.050-22.861 1.946-33.971l1.485-16.256c0.538-5.376 1.152-10.675 1.792-15.898l2.15-15.488c0.768-5.197 1.613-10.317 2.509-15.36 26.637 3.803 57.4 5.974 88.671 5.974 31.203 0 61.902-2.162 91.953-6.345l-3.472 0.396 1.357 7.731 2.304 15.283c2.483 18.074 4.352 37.018 5.453 56.602l0.768 16.973v0.384zM278.605 600.422l-2.688-4.019c-24.070-37-40.024-81.354-44.31-129.070l-0.080-1.106 138.138 0.051c0.922 31.283 3.584 61.44 7.834 89.856l2.176 13.542c-39.164 8.591-72.947 19.171-105.424 32.302l4.356-1.556zM608.384 560.794l-14.694-1.869c-22.318-2.668-48.164-4.19-74.366-4.19-31.382 0-62.255 2.183-92.474 6.406l3.487-0.399-2.048-12.851-2.15-15.488c-0.666-5.222-1.28-10.522-1.818-15.872l-1.485-16.282c-0.896-11.11-1.536-22.451-1.946-33.997h196.915v0.384l-0.768 16.973c-1.238 21.63-3.191 41.125-5.916 60.372l0.438-3.771-2.304 15.283c-0.256 1.766-0.563 3.533-0.87 5.299zM760.141 600.474l-9.574-3.738c-29.773-11.264-60.339-20.275-91.52-27.059 5.504-32.256 8.934-67.072 10.035-103.424h138.112c-4.523 50.484-21.459 96.258-47.703 135.247l0.65-1.026zM519.373 729.6c-27.136 0-55.117-40.73-74.342-105.062l-3.61-12.749-0.205-0.768c23.562-3.225 50.793-5.065 78.454-5.065 27.45 0 54.476 1.813 80.966 5.325l-3.106-0.337-0.23 0.845-3.584 12.749c-19.251 64.333-47.258 105.062-74.368 105.062zM427.878 714.803l-1.178-0.384c-44.887-15.495-83.161-40.177-114.168-71.978l-0.059-0.061c25.395-9.318 51.379-16.87 77.875-22.63 9.6 36.992 22.272 69.274 37.53 95.053zM610.79 714.829l1.792-3.046c14.49-25.242 26.573-56.474 35.84-92.032 26.47 5.76 52.48 13.312 77.824 22.579-31.352 32.191-70.062 57.058-113.424 71.895l-2.032 0.604z" />
<glyph unicode="&#xe92f;" glyph-name="icon-lock" d="M483.84 804.48c-40.499-5.069-81.664-25.702-111.949-56.166-30.061-30.045-50.394-69.821-55.866-114.199l-0.095-0.949c-1.050-8.448-1.894-29.67-1.894-47.181v-31.821l-20.915-0.589c-18.714-0.563-21.914-1.101-30.541-5.35-12.005-6.367-21.518-16.069-27.48-27.871l-0.168-0.366c-3.277-7.142-3.738-11.469-4.224-40.653-0.538-30.592-0.333-33.126 3.072-39.808 2.205-4.705 5.995-8.363 10.668-10.343l0.135-0.051c9.293-4.224 15.462-4.147 23.296 0.256 11.443 6.426 12.749 10.598 13.722 43.366l0.845 29.005h455.68l0.87-105.805c0.768-97.075 1.101-106.291 3.866-111.36 3.43-6.272 8.525-10.061 16.717-12.416 8.090-2.33 16.819 0.538 23.834 7.782l5.914 6.093v227.661l-4.019 8.064c-5.965 11.311-14.947 20.342-25.881 26.205l-0.333 0.163c-8.166 4.25-11.059 4.762-30.771 5.35l-21.76 0.666v34.688c0 19.072-0.819 40.602-1.818 47.846-8.96 64.384-49.971 121.037-108.032 149.222-25.37 12.786-55.296 20.273-86.97 20.273-9.133 0-18.121-0.623-26.923-1.827l1.022 0.115zM550.4 749.184c39.747-11.472 71.701-38.661 89.278-74.224l0.373-0.835c11.878-23.859 13.978-35.328 14.874-80.64l0.794-39.68h-290.97l0.947 38.835c1.126 45.722 3.251 56.474 16.589 83.533 19.2 38.938 58.112 68.122 101.965 76.442 19.277 3.661 46.592 2.253 66.15-3.43zM496.64 461.594c-38.988-7.055-68.173-40.735-68.173-81.232 0-14.246 3.612-27.649 9.969-39.342l-0.216 0.434c6.605-12.416 23.706-28.8 36.122-34.56l10.317-4.813 0.051-39.245c0.051-34.995 0.41-40.038 3.328-46.49 8.525-18.739 35.533-18.995 44.877-0.41 2.586 5.146 2.97 11.264 2.97 46.157v40.218l9.19 3.789c10.931 4.531 27.622 19.149 34.842 30.49 15.974 25.088 16.768 58.982 1.946 85.069-6.323 11.162-22.349 26.394-33.894 32.256-10.877 5.588-23.733 8.863-37.354 8.863-4.937 0-9.773-0.43-14.473-1.255l0.499 0.073zM517.939 410.266c8.96-2.509 18.816-12.518 21.274-21.658 6.067-22.528-15.027-43.93-37.35-37.914-14.054 3.789-22.528 15.027-22.528 29.901 0 14.234 7.040 24.397 20.122 29.082 8.115 2.893 9.958 2.944 18.483 0.589zM249.472 376.269c-7.373-1.664-15.258-9.293-17.51-16.947-1.152-3.942-1.562-42.010-1.229-110.157 0.512-102.528 0.589-104.218 4.198-112.077 4.992-10.752 16.512-22.912 26.982-28.442l8.602-4.531h479.565l8.218 4.070c10.496 5.197 21.76 16.486 26.957 26.957 3.789 7.68 4.070 10.445 4.557 41.498 0.461 30.976 0.256 33.664-2.97 38.835-10.061 16.205-34.099 16.307-43.597 0.23-2.893-4.941-3.533-9.83-4.25-33.101l-0.87-27.29h-455.68l-0.845 102.707c-0.845 100.378-0.922 102.784-4.378 107.392-7.27 9.728-16.563 13.363-27.75 10.854z" />
<glyph unicode="&#xe930;" glyph-name="icon-mac-process" d="M124.803 818.688c-7.767-4.72-11.414-11.464-11.414-21.029 0-7.942 2.722-12.987 59.592-109.893 70.007-119.358 66.21-113.239 72.779-116.636 7.318-3.796 18.607-3.422 25.45 0.799 6.344 3.921 5.994 3.247 32.993 63.288 10.115 22.478 18.932 41.509 19.631 42.259 0.674 0.724 10.715-13.986 22.303-32.743 11.813-19.056 23.028-35.34 25.525-36.964 19.756-12.962 45.73 7.767 36.689 29.271-3.921 9.316-65.986 108.544-71.23 113.889-6.419 6.544-21.204 7.942-29.446 2.747-6.319-3.946-8.392-7.942-33.842-64.737-11.913-26.574-19.356-41.31-20.155-39.961l-49.277 83.718c-37.189 63.188-49.252 82.395-53.598 85.317-7.043 4.77-18.807 5.070-26 0.674zM494.517 770.41c-8.242-5.070-11.264-9.666-12.088-18.282-0.974-10.19 2.872-18.907 10.39-23.552 4.371-2.697 10.24-3.671 29.971-5.020 40.011-2.697 74.627-11.838 108.269-28.622 92.56-46.155 151.352-135.967 156.797-239.441 1.224-23.427 3.821-29.696 14.336-34.791 3.971-1.923 8.891-3.497 10.939-3.497 10.615 0 22.528 10.265 24.576 21.204 1.623 8.766-2.098 47.728-6.843 71.23-25.1 124.478-121.681 224.356-246.434 254.851-36.464 8.891-80.396 11.788-89.912 5.919zM577.236 655.123c-13.062-2.198-26.574-9.416-37.139-19.856-15.010-14.836-21.379-30.62-21.429-53.048v-12.288l10.39 0.874c35.49 3.022 63.913 36.015 62.514 72.554-0.549 14.361-0.25 14.136-14.336 11.764zM432.078 553.922c-16.659-5.42-34.416-20.805-43.607-37.788-6.743-12.438-13.012-36.19-14.161-53.498-2.273-34.791 8.667-75.526 27.898-103.849 26.499-39.037 66.935-55.746 98.604-40.76l9.516 4.496 9.241-4.496c36.889-18.057 85.317 8.966 109.818 61.29 7.992 17.133 7.992 17.932-0.375 20.755-16.284 5.52-31.769 26.274-35.465 47.529-4.521 25.925 8.392 56.645 29.246 69.532l5.769 3.572-2.922 4.995c-4.446 7.618-17.258 18.882-27.248 24.027-12.962 6.644-33.917 7.643-48.553 2.298-12.763-4.645-21.029-9.79-31.444-19.506l-7.992-7.493-9.616 8.791c-6.424 5.579-13.672 10.498-21.468 14.501l-0.611 0.285c-11.164 5.32-14.111 5.994-27.473 6.319-8.242 0.175-16.859-0.275-19.156-0.999zM190.639 465.383c-6.768-2.847-13.237-10.115-15.085-16.908-2.023-7.568 0.425-45.156 4.246-65.111 13.137-68.333 44.157-127.725 91.561-175.179 60.491-60.566 146.732-97.355 228.177-97.355 13.612 0 19.031 1.898 25.675 9.016 5.694 6.094 6.718 21.179 1.948 28.772-5.47 8.692-11.464 10.69-36.964 12.288-48.278 3.022-91.76 16.659-132.221 41.435-42.908 26.324-83.918 71.855-105.597 117.236-17.708 37.089-28.272 81.371-28.397 119.009-0.050 10.69-3.671 19.056-10.39 23.827-5.694 4.046-16.884 5.495-22.953 2.972zM748.769 307.163c-6.419-4.221-7.093-5.52-32.793-62.714-10.814-24.052-20.105-43.682-20.655-43.657-0.549 0.050-10.365 15.16-21.804 33.592-11.464 18.457-22.803 34.991-25.2 36.764-10.465 7.668-26.724 4.371-34.292-6.968-4.196-6.269-5.095-17.858-1.873-24.002 6.893-13.187 67.359-109.243 70.631-112.215 4.303-3.79 9.986-6.104 16.21-6.104 6.751 0 12.867 2.722 17.309 7.129l-0.002-0.002c2.872 2.922 12.937 23.277 26.299 53.223 11.913 26.649 22.203 48.278 22.853 48.078 0.674-0.225 15.909-25.5 33.892-56.195 64.362-109.768 65.286-111.291 71.081-114.288 6.918-3.596 17.208-3.572 24.201 0.050 7.668 3.971 11.963 11.764 11.988 21.629 0 7.692-3.297 13.737-61.19 112.39-33.642 57.344-63.513 106.846-66.36 109.968-4.571 5.070-6.294 5.794-14.985 6.319-7.942 0.5-10.864-0.075-15.31-2.997z" />
<glyph unicode="&#xe931;" glyph-name="icon-privatize" d="M534.144 646.835c0.41-1.319 0.646-2.835 0.646-4.406 0-6.915-4.569-12.763-10.854-14.688l-0.109-0.029c-39.142-11.699-70.95-43.328-84.531-84.48 0.003-0.112 0.005-0.245 0.005-0.377 0-8.483-6.877-15.36-15.36-15.36-0.975 0-1.928 0.091-2.852 0.264l0.095-0.015c-4.312 0.814-9.273 1.28-14.343 1.28-0.065 0-0.13 0-0.195 0h0.010c-44.275 0-82.035-34.176-89.536-80.768-1.187-7.226-7.282-12.705-14.697-12.927l-0.023-0.001c-35.469-1.024-65.344-32.090-65.344-72.064 0-40 30.95-72.192 67.072-72.192h215.296c8.483 0 15.36-6.877 15.36-15.36s-6.877-15.36-15.36-15.36h-215.296c-55.014 0-97.792 47.936-97.792 102.912 0 50.726 35.328 93.99 82.893 101.632 13.811 54.118 60.544 94.848 117.427 94.848 1.958 0 3.904-0.051 5.85-0.154 17.715 46.899 55.424 83.482 102.528 97.562 1.315 0.407 2.827 0.642 4.394 0.642 6.914 0 12.76-4.568 14.687-10.85l0.029-0.109zM560 642.432c0 8.483 6.877 15.36 15.36 15.36v0h223.488c8.483 0 15.36-6.877 15.36-15.36v0-315.52c0-33.562-22.31-66.688-56.448-66.688h-182.4c-8.483 0-15.36 6.877-15.36 15.36s6.877 15.36 15.36 15.36h182.4c11.174 0 25.728 12.698 25.728 35.968v300.16h-208.128c-8.483 0-15.36 6.877-15.36 15.36v0zM519.424 869.248c8.483 0 15.36-6.877 15.36-15.36v0-806.016c0-8.483-6.877-15.36-15.36-15.36s-15.36 6.877-15.36 15.36v0 806.016c0 8.483 6.877 15.36 15.36 15.36v0zM560 397.824c0 8.483 6.877 15.36 15.36 15.36v0h223.488c8.483 0 15.36-6.877 15.36-15.36s-6.877-15.36-15.36-15.36h-223.488c-8.483 0-15.36 6.877-15.36 15.36v0zM560 520.192c0 8.483 6.877 15.36 15.36 15.36v0h223.488c8.483 0 15.36-6.877 15.36-15.36s-6.877-15.36-15.36-15.36h-223.488c-8.483 0-15.36 6.877-15.36 15.36v0zM732.288 439.808c10.604 0 19.2 8.596 19.2 19.2s-8.596 19.2-19.2 19.2v0c-10.604 0-19.2-8.596-19.2-19.2s8.596-19.2 19.2-19.2v0zM732.288 317.568c10.604 0 19.2 8.596 19.2 19.2s-8.596 19.2-19.2 19.2v0c-10.604 0-19.2-8.596-19.2-19.2s8.596-19.2 19.2-19.2v0zM732.288 562.048c10.604 0 19.2 8.596 19.2 19.2s-8.596 19.2-19.2 19.2v0c-10.604 0-19.2-8.596-19.2-19.2s8.596-19.2 19.2-19.2v0zM567.539 839.501c2.699 4.648 7.654 7.723 13.327 7.723 2.806 0 5.436-0.752 7.7-2.067l-0.074 0.039 262.899-150.502c28.035-16.136 46.616-45.913 46.656-80.033v-326.534c-0.080-34.094-18.631-63.838-46.173-79.763l-0.445-0.237-285.453-163.341c-13.359-7.725-29.387-12.283-46.48-12.283-0.436 0-0.87 0.003-1.305 0.009l0.066-0.001c-8.423 0.080-15.22 6.926-15.22 15.36 0 8.483 6.877 15.361 15.361 15.361 0.050 0 0.099 0 0.148-0.001h-0.008c0.285-0.005 0.621-0.007 0.958-0.007 11.468 0 22.225 3.047 31.505 8.375l-0.309-0.163 285.44 163.328c18.703 10.762 31.112 30.604 31.194 53.352v326.54c-0.046 22.752-12.451 42.595-30.857 53.179l-0.298 0.158-0.026 0.026-262.912 150.528c-4.648 2.699-7.723 7.654-7.723 13.327 0 2.806 0.752 5.436 2.067 7.7l-0.039-0.074zM472.883 857.997c13.354 7.799 29.399 12.403 46.52 12.403 0.007 0 0.015 0 0.022 0h-0.001c8.483 0 15.36-6.877 15.36-15.36v0-57.472c0-8.483-6.877-15.36-15.36-15.36s-15.36 6.877-15.36 15.36v0 40.205c-5.504-1.382-10.854-3.52-15.898-6.426h-0.026l-285.466-163.238c-18.701-10.74-31.104-30.578-31.155-53.318v-326.535c0.046-22.752 12.451-42.595 30.857-53.179l0.298-0.158 0.026-0.013 261.888-149.76c4.655-2.699 7.736-7.658 7.736-13.338 0-8.486-6.879-15.365-15.365-15.365-2.807 0-5.438 0.753-7.702 2.067l0.074-0.039-261.862 149.76c-28.036 16.131-46.621 45.903-46.669 80.019v326.535c0.045 34.12 18.625 63.891 46.21 79.788l0.446 0.237h0.013l285.414 163.2z" />
<glyph unicode="&#xe932;" glyph-name="icon-red-alert" d="M512 69.12c-209.249 0-378.88 169.631-378.88 378.88s169.631 378.88 378.88 378.88c209.249 0 378.88-169.631 378.88-378.88s-169.631-378.88-378.88-378.88zM512 38.4c226.216 0 409.6 183.384 409.6 409.6s-183.384 409.6-409.6 409.6c-226.216 0-409.6-183.384-409.6-409.6s183.384-409.6 409.6-409.6zM512 680.96c8.483 0 15.36-6.877 15.36-15.36v-345.6c0-8.483-6.877-15.36-15.36-15.36s-15.36 6.877-15.36 15.36v345.6c0 8.483 6.877 15.36 15.36 15.36zM512 249.6c10.604 0 19.2-8.596 19.2-19.2v-6.4c0-10.604-8.596-19.2-19.2-19.2s-19.2 8.596-19.2 19.2v6.4c0 10.604 8.596 19.2 19.2 19.2z" />
<glyph unicode="&#xe933;" glyph-name="icon-registry-key" d="M679.424 778.573c-3.763-1.523-6.921-3.866-9.364-6.821l-0.032-0.039c-3.533-4.736-3.584-6.17-3.584-93.312s0.051-88.576 3.584-93.312c6.426-8.678 8.755-8.883 97.971-8.883s91.546 0.205 97.971 8.883c3.533 4.736 3.584 6.17 3.584 93.312s-0.051 88.576-3.584 93.312c-2.474 2.995-5.632 5.338-9.239 6.805l-0.156 0.056c-8.243 2.893-168.909 2.893-177.152 0zM471.885 747.418l-80.384-27.443c-7.475-2.56-14.003-6.144-17.050-9.318-8.55-8.934-7.706-12.8 21.197-96.998 14.31-41.728 27.546-78.31 29.389-81.306 4.122-6.682 11.571-9.984 20.019-8.832 8.32 1.101 156.339 51.712 161.869 55.322 5.452 3.963 9.005 10.252 9.19 17.379l0.001 0.029c0 5.658-47.411 146.406-53.811 159.795-2.253 4.71-5.555 9.446-7.347 10.547-9.19 5.683-12.339 4.966-83.072-19.174zM819.2 678.4v-51.2h-102.4v102.4h102.4v-51.2zM541.107 663.194c8.858-26.214 15.718-48.051 15.206-48.563-0.486-0.512-22.221-8.218-48.307-17.126-32.307-11.059-47.616-15.565-48.102-14.157-12.16 34.253-31.437 92.749-31.002 94.080 0.563 1.715 87.962 32.742 93.44 33.178 1.997 0.179 6.605-11.469 18.765-47.411zM141.824 599.373c-3.763-1.523-6.921-3.866-9.364-6.821l-0.032-0.039-3.584-4.813v-484.198l3.584-4.813c2.474-2.995 5.632-5.338 9.239-6.805l0.156-0.056c8.397-2.944 475.955-2.944 484.352 0 3.763 1.523 6.921 3.866 9.364 6.821l0.032 0.039c3.533 4.736 3.584 6.17 3.584 93.312s-0.051 88.576-3.584 93.312c-6.298 8.499-9.882 8.883-82.125 8.986l-66.893 0.102-0.512 69.862c-0.486 67.814-0.589 69.99-4.070 74.65-6.298 8.499-9.882 8.883-82.125 8.986l-66.893 0.102-0.512 69.862c-0.486 67.814-0.589 69.99-4.070 74.65-2.474 2.995-5.632 5.338-9.239 6.805l-0.156 0.056c-8.243 2.893-168.909 2.893-177.152 0zM688.64 549.453c-7.322-3.763-121.498-118.246-124.749-125.082-5.965-12.57-5.914-12.672 59.597-78.464 33.024-33.178 62.106-61.389 64.64-62.72 6.042-3.2 12.211-3.072 18.944 0.333 6.963 3.533 114.074 109.926 120.755 119.962 5.53 8.32 6.323 14.95 2.586 21.99-3.738 7.066-120.627 122.778-126.106 124.826-6.477 2.432-9.626 2.278-15.667-0.845zM281.6 499.2v-51.2h-102.4v102.4h102.4v-51.2zM733.466 380.186l-36.275-36.301-72.55 72.525 72.499 72.55 72.576-72.499-36.25-36.275zM281.6 345.6v-51.2h-102.4v102.4h102.4v-51.2zM435.2 345.6v-51.2h-102.4v102.4h102.4v-51.2zM281.6 192v-51.2h-102.4v102.4h102.4v-51.2zM435.2 192v-51.2h-102.4v102.4h102.4v-51.2zM588.8 192v-51.2h-102.4v102.4h102.4v-51.2z" />
<glyph unicode="&#xe934;" glyph-name="icon-scheduled-task" d="M485.555 778.931c-81.331-8.341-152.994-44.282-206.658-98.165l-0.011-0.011c-119.654-119.629-132.966-307.635-31.514-444.365 12.186-16.41 41.626-46.95 58.086-60.211 57.702-47.164 132.198-75.743 213.37-75.743 38.15 0 74.825 6.313 109.038 17.951l-2.383-0.704c52.506 17.306 94.848 43.392 134.144 82.688s65.382 81.638 82.688 134.144c10.937 31.833 17.251 68.512 17.251 106.665 0 81.157-28.571 155.64-76.202 213.942l0.481-0.607c-12.211 15.104-41.472 43.776-55.962 54.861-69.53 53.094-157.414 78.336-242.33 69.555zM548.096 727.808c37.069-3.763 69.069-13.184 102.067-30.003 27.653-13.936 51.331-31.254 71.74-51.823l0.017-0.017c45.414-45.005 72.627-97.971 82.893-161.28 4.045-24.96 3.635-67.763-0.896-93.747-18.94-104.641-91.951-188.583-188.489-222.785l-2.026-0.626c-28.145-10.072-60.616-15.894-94.446-15.894-32.57 0-63.88 5.396-93.084 15.343l2.032-0.601c-21.888 7.219-57.037 25.114-76.314 38.835-20.787 14.797-52.275 46.31-66.97 67.021-33.68 46.718-53.867 105.114-53.867 168.224 0 69.025 24.147 132.41 64.455 182.168l-0.425-0.542c17.434 21.632 45.491 47.027 67.021 60.646 42.317 26.778 78.669 39.168 133.99 45.747 11.238 1.357 35.558 1.024 52.301-0.666zM602.445 573.005c-5.811-2.893-12.058-10.419-82.765-99.584l-22.195-27.981-73.037-24.832c-40.192-13.67-75.827-26.342-79.206-28.16-6.477-3.482-12.339-13.466-12.416-21.146 0-2.278 1.613-7.552 3.635-11.725 4.352-8.96 15.258-14.95 24.499-13.466 3.046 0.512 38.4 12.109 78.566 25.805 40.192 13.67 74.291 24.883 75.75 24.909 8.192 0.077 17.152 9.907 67.661 74.112 28.749 36.531 53.018 68.403 53.965 70.81 0.922 2.406 1.331 7.578 0.922 11.494-1.946 17.638-19.738 27.571-35.379 19.763z" />
<glyph unicode="&#xe935;" glyph-name="icon-settings" d="M495.189 874.795c-10.88-2.773-20.565-8.149-174.336-97.024-166.315-96.128-166.656-96.341-177.365-116.437-10.795-20.267-10.368-11.733-10.368-212.48s-0.427-192.213 10.368-212.48c10.709-20.053 11.349-20.48 173.952-114.517 83.072-48.043 156.8-90.112 163.84-93.525 12.501-6.016 13.269-6.144 33.28-6.144 18.859 0 21.291 0.384 30.72 4.779 5.632 2.645 78.933 44.501 162.901 93.013 163.968 94.763 166.955 96.683 177.28 116.053 10.795 20.309 10.496 13.739 10.496 212.821 0 198.656 0.299 192.555-10.325 212.48-10.709 20.053-11.307 20.48-173.952 114.517-83.072 48.043-156.715 90.069-163.627 93.355-11.477 5.504-14.123 6.101-29.867 6.528-1.83 0.091-3.974 0.142-6.13 0.142-5.947 0-11.802-0.393-17.54-1.154l0.673 0.073zM663.893 705.237l145.92-84.48v-343.808l-145.92-84.565c-80.256-46.507-147.456-84.565-149.333-84.565s-69.077 38.016-149.333 84.523l-145.92 84.565v343.893l146.773 85.077c80.725 46.763 147.925 84.779 149.333 84.437s68.224-38.613 148.48-85.077zM485.461 616.192c-54.364-9.061-99.374-42.638-123.924-88.76l-0.45-0.925c-12.106-22.792-19.214-49.834-19.214-78.536 0-87.567 66.165-159.681 151.228-169.076l0.765-0.069c106.453-12.373 199.68 80.853 187.307 187.307-11.307 97.451-99.456 165.035-195.712 150.059zM532.992 530.773c5.376-1.365 13.781-4.565 18.688-7.040 11.477-5.803 30.251-24.576 36.053-36.053 6.009-11.539 9.534-25.198 9.534-39.68s-3.525-28.141-9.763-40.166l0.229 0.486c-5.803-11.477-24.576-30.251-36.053-36.053-11.539-6.009-25.198-9.534-39.68-9.534s-28.141 3.525-40.166 9.763l0.486-0.229c-11.477 5.803-30.251 24.576-36.053 36.053-6.009 11.539-9.534 25.198-9.534 39.68s3.525 28.141 9.763 40.166l-0.229-0.486c5.845 11.52 24.576 30.251 36.096 36.053 11.62 5.985 25.358 9.494 39.916 9.494 7.351 0 14.492-0.895 21.322-2.581l-0.609 0.127z" />
<glyph unicode="&#xe936;" glyph-name="icon-trash-outlined" d="M682.667 576v-426.667h-341.333v426.667h341.333zM618.667 832h-213.333l-42.667-42.667h-149.333v-85.333h597.333v85.333h-149.333l-42.667 42.667zM768 661.333h-512v-512c0-46.933 38.4-85.333 85.333-85.333h341.333c46.933 0 85.333 38.4 85.333 85.333v512z" />
<glyph unicode="&#xe937;" glyph-name="icon-upload-file" d="M295.385 772.923h244.935c5.197 0 10.184-2.055 13.872-5.716l189.355-187.948c0.232-0.231 0.453-0.473 0.66-0.724 1.318-1.599 2.101-3.576 2.231-5.651 0.013-0.204 0.019-0.409 0.019-0.614v-440.963c0-5.438-4.408-9.846-9.846-9.846h-441.226c-5.438 0-9.846 4.408-9.846 9.846v631.77c0 5.438 4.408 9.846 9.846 9.846zM712.714 582.116l-172.394 171.114h-235.089v-612.077h421.534v421.271h-182.388c-5.438 0-9.846 4.409-9.846 9.846v126.428c0 5.438 4.408 9.846 9.846 9.846s9.846-4.408 9.846-9.846v-116.581h158.492zM422.401 389.68c0 5.982 4.849 10.831 10.831 10.831h74.675v74.149c0 5.982 4.849 10.831 10.831 10.831s10.831-4.849 10.831-10.831v-74.149h74.675c5.983 0 10.832-4.849 10.832-10.831s-4.849-10.831-10.832-10.831h-74.675v-74.149c0-5.982-4.848-10.831-10.831-10.831s-10.831 4.849-10.831 10.831v74.149h-74.675c-5.982 0-10.831 4.849-10.831 10.831z" />
<glyph unicode="&#xe938;" glyph-name="icon-users-no-hexagon" d="M417.946 716.8c77.286 0 137.562-84.070 137.562-185.792 0-46.938-12.915-91.11-35.584-124.851l-2.086-3.021 1.818-0.947c45.734-24.512 85.619-65.203 115.533-117.453l3.162-5.632c1.298-2.208 2.065-4.865 2.065-7.7 0-5.77-3.176-10.798-7.876-13.431l-0.078-0.040c-2.134-1.195-4.684-1.898-7.397-1.898-5.888 0-11.002 3.313-13.58 8.177l-0.040 0.083c-31.232 56.742-74.598 98.56-123.584 119.040-5.592 2.379-9.442 7.827-9.442 14.174 0 3.975 1.51 7.597 3.988 10.325l-0.011-0.013c26.419 29.235 42.394 74.214 42.394 123.187 0 86.528-49.152 155.072-106.842 155.072s-106.829-68.544-106.829-155.072c0-48.973 15.974-93.952 42.394-123.187 2.456-2.714 3.959-6.331 3.959-10.298 0-6.343-3.841-11.788-9.325-14.137l-0.1-0.038c-61.184-25.587-113.011-84.186-143.693-161.933l-1.165-2.995h623.936l-1.485 3.494c-17.050 38.899-43.571 68.326-74.394 82.432l-3.584 1.574c-5.606 2.373-9.468 7.828-9.468 14.185 0 3.982 1.515 7.61 4.001 10.339l-0.011-0.012c14.592 16.077 23.526 40.768 23.526 67.891 0 47.642-26.534 84.646-56.333 84.646-29.811 0-56.346-37.005-56.346-84.646 0-27.123 8.922-51.814 23.526-67.891 2.479-2.718 3.997-6.35 3.997-10.336 0-8.485-6.878-15.363-15.363-15.363-4.499 0-8.546 1.934-11.355 5.015l-0.011 0.012c-19.917 21.926-31.514 54.016-31.514 88.55 0 62.822 37.67 115.366 87.066 115.366 49.382 0 87.053-52.544 87.053-115.366 0-25.523-6.336-49.715-17.677-69.453l-1.946-3.238 2.342-1.395c36.902-22.477 66.394-62.208 82.906-111.488l1.664-5.12c0.448-1.375 0.706-2.958 0.706-4.601 0-7.918-5.996-14.435-13.694-15.259l-0.067-0.006-1.613-0.077h-667.29c-0.001 0-0.003 0-0.004 0-7.929 0-14.454 6.007-15.273 13.718l-0.006 0.067-0.077 1.574v0.973c0 1.626 0.256 3.238 0.768 4.787 28.48 86.797 80.986 155.699 146.202 191.808l4.672 2.547-2.061 2.995c-21.76 32.384-34.534 74.394-35.52 119.232l-0.064 5.619c0 101.709 60.288 185.792 137.549 185.792v0.013z" />
<glyph unicode="&#xe939;" glyph-name="icon-vo" d="M460.083 858.035l-285.491-163.277c-28.004-16.163-46.557-45.936-46.592-80.046v-326.533c0.051-34.118 18.598-63.893 46.148-79.84l0.444-0.237 285.491-163.302c13.363-7.765 29.407-12.348 46.522-12.348s33.158 4.583 46.972 12.589l-0.45-0.241 285.44 163.277c28.026 16.167 46.597 45.954 46.643 80.083v326.535c-0.041 34.129-18.621 63.909-46.21 79.814l-0.446 0.237-285.44 163.29c-13.36 7.769-29.402 12.354-46.515 12.354s-33.155-4.585-46.965-12.594l0.449 0.241zM537.869 831.386l285.44-163.302c18.72-10.748 31.136-30.607 31.181-53.37v-326.534c-0.051-22.778-12.463-42.646-30.882-53.256l-0.298-0.158-285.44-163.277c-8.982-5.214-19.763-8.291-31.264-8.291s-22.283 3.077-31.567 8.453l0.303-0.162-285.478 163.264c-18.695 10.785-31.089 30.646-31.142 53.407v326.536c0 22.016 11.853 42.368 31.13 53.376l285.491 163.29c8.98 5.22 19.762 8.301 31.264 8.301s22.284-3.081 31.566-8.463l-0.302 0.162zM388.928 310.144c9.728 0 14.848 3.84 18.765 14.285l82.739 219.443c1.19 3.315 1.882 6.272 1.882 8.704 0 7.834-6.49 13.568-15.526 13.568-7.514 0-11.61-3.123-14.502-11.136l-72.845-204.288h-1.024l-72.858 204.288c-2.726 7.654-7.334 11.136-14.669 11.136-9.216 0-15.36-5.402-15.36-13.568 0-2.445 0.512-5.235 1.882-8.704l82.573-219.29c3.93-10.445 9.216-14.438 18.944-14.438zM625.229 310.144c69.632 0 113.229 49.28 113.229 127.923s-43.584 128.090-113.229 128.090c-69.632 0-113.229-49.446-113.229-128.090 0-78.63 43.584-127.91 113.229-127.91zM625.229 338.65c-50.227 0-81.728 38.464-81.728 99.418 0 61.12 31.488 99.584 81.728 99.584 50.227 0 81.728-38.464 81.728-99.584 0-60.954-31.488-99.418-81.728-99.418z" />
<glyph unicode="&#xe93a;" glyph-name="icon-wifi-forbidden" d="M475.315 752.41c-34.765-7.347-64.922-31.642-80.333-64.614-6.723-13.942-10.652-30.316-10.652-47.608 0-18.098 4.303-35.191 11.943-50.311l-0.293 0.639c12.365-25.498 29.901-42.803 55.424-54.733 22.4-10.419 46.336-13.235 70.477-8.269 45.197 9.64 80.191 44.617 89.719 89.044l0.137 0.761c1.607 6.782 2.528 14.568 2.528 22.569 0 8.082-0.94 15.945-2.716 23.485l0.137-0.691c-12.877 62.464-74.24 102.835-136.371 89.728zM567.629 646.989c4.506-4.506 5.811-7.194 5.811-12.109s-1.306-7.603-5.811-12.109l-5.786-5.811h-130.406l-5.786 5.811c-8.090 8.064-8.090 16.154 0 24.218l5.786 5.811h130.406l5.786-5.811zM644.275 608.128c-6.118-4.813-11.008-15.77-11.059-24.755-0.051-10.854 5.248-15.846 25.933-24.397 51.584-21.299 93.978-48.486 133.965-85.862 7.501-7.040 15.386-13.722 17.51-14.848 8.96-4.813 21.504-1.178 29.696 8.576 3.661 4.352 4.48 7.040 4.48 14.899 0 12.058-2.304 15.437-23.731 34.842-41.088 37.197-88.653 67.379-137.882 87.475-22.016 8.986-31.411 9.958-38.912 4.070zM327.68 608.947c-1.408-0.486-11.264-4.659-21.888-9.242-48.589-20.966-99.84-55.347-137.267-92.109l-14.925-14.669v-9.088c0-7.142 0.947-10.291 4.454-14.925 8.448-11.034 20.915-15.334 30.208-10.394 2.048 1.075 12.57 9.856 23.373 19.507 9.219 8.303 19.303 16.846 29.641 25.084l1.335 1.028c25.984 19.635 61.747 40.166 91.034 52.275 19.789 8.192 26.47 14.643 26.47 25.6 0 9.062-4.762 19.43-11.29 24.55-4.403 3.456-14.822 4.634-21.146 2.381zM488.115 475.776c-39.219-1.357-84.173-12.16-121.882-29.286-26.726-12.134-61.952-36.352-83.302-57.267-17.229-16.845-18.406-26.701-4.838-40.269 13.466-13.491 22.298-12.518 41.293 4.557 16.435 14.771 28.621 24.090 43.29 33.101 75.75 46.541 171.699 51.046 252.083 11.853 21.99-10.726 41.114-23.68 62.336-42.266 10.931-9.574 19.456-15.667 22.784-16.358 11.392-2.253 27.366 9.754 29.901 22.477 2.304 11.546-3.2 19.354-28.467 40.422-54.377 45.557-125.089 73.226-202.263 73.226-3.845 0-7.674-0.069-11.486-0.205l0.552 0.016zM475.571 309.683c-30.643-5.516-57.391-19.378-78.582-39.125l0.092 0.085c-15.181-14.182-15.283-27.699-0.307-40.832 5.222-4.608 7.45-5.376 15.206-5.376 8.678 0 9.702 0.486 22.272 10.957 21.248 17.664 40.141 24.883 64.87 24.858 25.037-0.051 46.771-7.91 63.846-23.040 12.851-11.392 15.59-12.774 25.395-12.774 8.422 0 9.574 0.512 16.589 7.526 14.31 14.31 11.827 26.854-8.678 43.878-33.946 28.134-79.13 40.806-120.704 33.843z" />
<glyph unicode="&#xe93b;" glyph-name="icon-wifi-new" d="M487.906 658.101c-19.637-1.303-36.644-3.007-53.487-5.23l4.094 0.442c-98.574-14.709-185.661-55.57-256.374-115.227l0.766 0.629c-17.98-15.149-22.648-22.588-20.962-33.28 1.054-6.445 3.614-11.023 10.12-17.98 7.048-7.499 13.402-10.812 20.872-10.812 7.56 0 13.553 3.192 26.323 14.035 57.722 49.397 128.96 84.668 207.406 99.605l2.815 0.446c30.328 5.632 46.833 7.017 82.522 7.017s52.194-1.385 82.522-7.017c81.26-15.383 152.498-50.653 210.837-100.565l-0.615 0.514c12.77-10.842 18.763-14.035 26.323-14.035 7.469 0 13.824 3.313 20.872 10.812 6.505 6.957 9.065 11.535 10.12 17.98 1.687 10.692-2.982 18.131-20.962 33.28-67.869 57.278-151.92 97.492-244.353 112.977l-3.003 0.416c-28.521 4.578-82.010 7.62-105.833 5.993zM483.689 506.85c-43.258-3.727-83.121-14.456-119.744-31.076l2.285 0.928c-20.329-9.005-35.96-17.739-56.019-31.322-31.232-21.112-40.358-30.81-40.358-42.827 0-15.209 16.083-32.858 29.967-32.858 7.258 0 13.704 3.042 24.666 11.746 41.035 32.773 91.487 55.468 146.685 63.558l1.674 0.201c19.817 2.831 60.898 2.831 80.715 0 54.362-7.77 105.171-29.606 148.36-63.759 10.963-8.704 17.408-11.746 24.666-11.746 13.884 0 29.967 17.649 29.967 32.858 0 12.198-9.276 21.926-41.562 43.58-15.954 11.163-34.156 21.462-53.324 29.98l-2.093 0.83c-43.166 19.637-93.614 31.083-146.735 31.083-10.261 0-20.422-0.427-30.466-1.264l1.315 0.088zM490.918 356.472c-25.868-2.611-49.541-9.646-71.064-20.354l1.191 0.536c-16.053-7.831-33.581-19.185-38.731-25.088-9.909-11.294-7.831-26.744 5.421-40.147 12.017-12.198 22.438-12.017 41.231 0.753 12.62 8.224 27.192 14.994 42.71 19.553l1.171 0.295c44.122 11.204 85.143 4.367 123.452-20.54 13.975-9.096 21.926-10.963 30.75-7.258 5.632 2.349 14.155 11.354 17.95 18.974 3.313 6.596 4.126 15.089 1.988 20.691-6.536 17.167-57.404 43.369-97.461 50.206-15.902 2.741-44.484 3.885-58.609 2.379z" />
<glyph unicode="&#xe93c;" glyph-name="icon-windows-event-log" d="M280.653 803.994c-7.936-3.9-13.657-11.259-15.233-20.056l-0.025-0.168c-0.563-3.968-0.794-64.845-0.512-135.245l0.512-128 3.866-6.221c5.171-8.32 13.85-12.314 24.627-11.264 11.238 1.075 19.226 8.55 21.76 20.378 1.152 5.376 1.792 48.41 1.792 120.090v111.693h221.030l148.454-148.48h-111.59l-0.512 36.582c-0.486 34.074-0.768 36.89-4.122 41.37-11.597 15.539-36.25 14.49-44.006-1.869-2.33-4.89-2.739-13.44-2.739-56.448 0-56.090 0.435-58.726 10.88-66.176l5.325-3.814 181.76-0.947v-409.498h-404.147l-0.589 36.275c-0.538 32.563-0.947 36.838-4.019 41.933-9.958 16.563-35.661 16.538-44.698-0.051-2.765-5.069-3.072-10.778-3.072-57.677 0-50.534 0.102-52.224 3.712-58.035 2.048-3.277 6.272-7.501 9.395-9.37 5.581-3.379 8.678-3.43 241.178-3.43s235.597 0.051 241.178 3.43c3.123 1.869 7.347 6.093 9.395 9.37l3.712 5.99 0.512 231.245c0.282 127.181 0.026 234.701-0.538 238.925-1.050 7.501-3.686 10.317-105.472 112.384-60.134 60.314-106.752 105.728-109.901 107.11-7.936 3.43-270.003 3.43-277.914-0.026zM114.816 448.973c-8.934-4.019-12.774-11.853-11.827-24.013 1.101-13.978 35.635-141.645 39.834-147.251 6.272-8.397 11.904-11.264 23.168-11.878 13.21-0.717 22.4 3.917 28.032 14.131 2.048 3.712 8.422 24.806 14.182 46.874 5.734 22.042 10.854 41.242 11.366 42.65 0.538 1.408 3.61-7.424 6.835-19.61 19.61-74.342 20.608-76.774 33.178-81.792 16.819-6.733 32.922-1.050 40.73 14.362 3.149 6.195 36.48 128.538 38.451 141.133 1.587 10.138-3.482 21.146-11.546 24.96-14.131 6.707-31.437 1.792-36.531-10.394-1.485-3.482-6.912-28.083-12.083-54.63s-9.754-47.923-10.189-47.488c-0.435 0.435-6.093 23.245-12.57 50.688-6.477 27.469-12.979 51.738-14.438 53.965-9.574 14.618-34.714 13.875-42.086-1.203-1.587-3.302-8.090-28.134-14.438-55.219-7.68-32.768-11.981-48.179-12.826-46.080-0.717 1.741-5.222 23.475-10.010 48.307-9.37 48.614-10.752 53.35-17.638 59.699-5.606 5.197-21.094 6.63-29.594 2.79zM527.488 448.435c-3.688-2.047-6.805-4.656-9.351-7.753l-0.044-0.055c-3.456-4.71-3.533-6.656-3.533-79.36 0-82.509-0.179-81.101 11.034-88.627 5.888-3.968 6.016-3.994 55.168-3.482l49.28 0.486 4.992 5.581c4.096 4.608 4.966 7.066 4.966 14.259 0 7.578-0.717 9.395-5.811 14.464l-5.786 5.811h-59.853l-0.538 61.005c-0.512 57.037-0.768 61.466-3.968 67.712-6.093 11.981-23.373 16.666-36.557 9.958zM374.272 444.672c-11.827-7.219-11.546-5.376-12.134-80.23-0.282-37.12-0.051-70.784 0.538-74.803 1.441-10.496 9.404-18.78 19.613-20.687l0.151-0.023c10.138-2.176 80.973-2.33 91.955-0.205 11.085 2.125 17.126 9.37 17.126 20.557 0 6.963-0.896 9.472-4.966 14.054l-4.992 5.581-65.126 1.050v28.8h26.419c31.232 0 39.014 2.074 42.88 11.315 3.021 7.219 2.97 9.933-0.282 16.794-4.019 8.499-8.013 9.446-40.090 9.446h-28.928v29.005l25.165 0.077c31.77 0.102 39.014 1.434 45.184 8.32 3.866 4.352 4.736 6.912 4.736 14.003 0 7.578-0.717 9.395-5.811 14.464l-5.786 5.811h-50.099c-46.643 0-50.458-0.23-55.552-3.328z" />
<glyph unicode="&#xe93d;" glyph-name="icon-windows-process" d="M123.879 818.014c-6.696-4.299-11.070-11.708-11.070-20.138 0-0.789 0.038-1.569 0.113-2.338l-0.008 0.098c0.574-5.57 13.487-28.822 61.964-111.566 33.692-57.494 62.739-106.196 64.562-108.244 1.823-2.023 6.619-4.945 10.615-6.494 9.016-3.422 17.883-1.349 25.001 5.869 2.897 2.922 12.837 23.028 26.149 52.823 11.813 26.449 21.979 48.652 22.578 49.352 0.624 0.699 10.665-14.086 22.303-32.893 11.664-18.782 23.127-35.415 25.45-36.939s8.092-3.097 12.812-3.472c6.993-0.549 9.691 0.050 14.436 3.247 10.69 7.193 14.511 20.88 8.916 31.819-8.517 16.709-65.286 106.221-70.656 111.491-5.769 5.62-7.293 6.244-15.21 6.219-9.765 0-18.007-3.946-21.579-10.29-1.174-2.123-11.564-24.701-23.102-50.201-11.514-25.475-21.629-46.38-22.453-46.405-0.849-0.050-22.303 35.316-47.703 78.573-40.325 71.392-56.504 98.406-72.812 125.334l23.96-42.614c-6.943 10.59-23.627 13.886-34.267 6.768zM496.965 772.158c-14.286-6.344-19.656-23.102-11.589-36.14 5.595-9.041 11.414-11.139 34.941-12.588 24.701-1.499 38.637-3.671 59.817-9.291 95.432-25.3 173.58-103.674 198.132-198.706 5.495-21.279 7.892-36.814 9.89-64.287 1.499-20.78 4.071-26.449 14.186-31.244 3.099-1.519 6.744-2.407 10.597-2.407 9.777 0 18.218 5.721 22.158 13.998l0.064 0.148c3.372 6.968 3.572 9.116 2.572 27.049-9.116 161.268-129.249 291.54-287.944 312.27-19.98 2.597-48.203 3.247-52.823 1.199zM571.842 577.873c-21.579-2.972-40.96-5.944-43.058-6.619-7.018-2.223-16.234-12.138-18.357-19.731-1.374-4.845-1.848-17.533-1.474-38.837 0.549-31.494 0.574-31.669 5.245-38.712 8.392-12.688 11.813-13.412 63.038-13.462 27.448 0 46.23 0.649 49.127 1.748 6.369 2.398 13.787 9.591 16.559 16.084 3.247 7.618 3.272 79.772 0 87.589-4.046 9.716-17.783 18.182-28.522 17.558-1.823-0.1-20.98-2.622-42.558-5.62zM410.324 556.319c-42.933-6.019-45.206-6.519-51.974-11.264-9.091-6.419-11.189-13.712-11.189-38.762 0-15.485 0.724-24.276 2.298-27.948 2.772-6.494 10.165-13.687 16.534-16.084 2.897-1.099 21.929-1.773 49.602-1.773 41.435 0 45.431 0.25 51.35 3.272 14.561 7.443 17.183 15.535 16.459 50.975-0.5 25.325-0.774 27.099-4.67 32.793-5.242 7.271-13.242 12.272-22.438 13.469l-0.165 0.018c-3.621 0.425-24.226-1.698-45.805-4.695zM186.892 463.535c-12.313-7.318-14.561-17.633-11.189-51.575 4.87-49.027 21.229-99.603 45.031-138.989 46.255-76.575 118.060-130.198 203.751-152.176 28.197-7.218 41.26-8.966 67.534-9.066 21.629-0.050 24.601 0.275 28.572 3.272 14.361 10.764 13.437 32.543-1.773 41.41-4.321 2.523-10.365 3.497-27.623 4.496-100.727 5.719-190.289 63.963-235.445 153.125-18.857 37.189-28.197 72.105-30.97 115.662-0.649 10.065-2.148 20.63-3.322 23.477-5.020 12.113-22.703 17.433-34.566 10.365zM366.567 433.14c-4.068-1.598-7.578-3.695-10.678-6.27l0.063 0.051c-7.393-6.793-8.791-12.788-8.791-37.189 0-24.251 1.424-30.42 8.542-36.964 6.968-6.419 14.661-8.292 57.544-13.911 45.456-5.969 49.627-5.819 59.617 2.023 8.941 7.043 10.764 14.386 10.789 43.732 0.050 31.020-1.998 37.813-13.762 45.605l-6.768 4.471-45.081 0.375c-35.266 0.325-46.455-0.1-51.475-1.923zM529.383 433.739c-7.218-2.098-17.083-12.588-19.181-20.38-1.074-3.971-1.573-19.306-1.249-38.437 0.524-29.796 0.799-32.219 4.371-37.988 7.043-11.289 10.864-12.538 58.093-18.956 25.076-3.397 45.805-5.42 49.751-4.87 8.192 1.174 18.532 9.216 21.754 16.908 3.247 7.817 3.272 79.922 0 87.739-2.897 6.918-11.064 13.812-19.006 16.009-7.543 2.098-87.29 2.073-94.533-0.025zM748.894 307.462c-6.294-3.971-8.342-7.892-33.792-64.612-10.365-23.077-19.406-41.609-20.080-41.185-0.674 0.4-10.065 15.035-20.83 32.493-10.789 17.458-21.754 33.542-24.351 35.715-17.458 14.686-45.481-2.922-39.461-24.801 2.273-8.217 67.259-112.64 73.353-117.91 11.564-9.94 29.072-6.494 36.814 7.218 2.248 3.996 13.012 27.273 23.902 51.724 10.889 24.476 20.18 44.532 20.63 44.556 0.475 0.025 22.953-37.613 49.951-83.618 48.603-82.769 49.202-83.718 56.994-87.564 6.194-3.072 9.291-3.671 14.611-2.772 13.312 2.248 23.677 17.932 20.105 30.395-2.348 8.117-121.381 210.32-127.625 216.763-4.82 4.97-6.768 5.794-15.185 6.344-7.568 0.475-10.839-0.125-15.035-2.747z" />
<glyph unicode="&#xe93e;" glyph-name="icon-windows" d="M537.6 499.2c0-14.138 11.462-25.6 25.6-25.6v0h128c14.138 0 25.6 11.462 25.6 25.6v0 141.645c0 6.603-5.353 11.955-11.955 11.955v0h-141.645c-14.138 0-25.6-11.462-25.6-25.6v0-128zM460.8 473.6c14.138 0 25.6 11.462 25.6 25.6v0 128c0 14.138-11.462 25.6-25.6 25.6v0h-141.645c-6.603 0-11.955-5.353-11.955-11.955v-141.645c0-14.138 11.462-25.6 25.6-25.6v0h128zM486.4 396.8c0 14.138-11.462 25.6-25.6 25.6v0h-128c-14.138 0-25.6-11.462-25.6-25.6v0-141.645c0-6.605 5.376-11.955 11.955-11.955h141.645c14.138 0 25.6 11.462 25.6 25.6v0 128zM563.2 422.4c-14.138 0-25.6-11.462-25.6-25.6v0-128c0-14.138 11.462-25.6 25.6-25.6v0h141.645c6.605 0 11.955 5.376 11.955 11.955v141.645c0 14.138-11.462 25.6-25.6 25.6v0h-128z" />
<glyph unicode="&#xe93f;" glyph-name="icon-vulnerability" d="M515.814 806.4c200.064 0 362.24-162.176 362.24-362.24s-162.176-362.24-362.24-362.24c-200.038 0-362.214 162.202-362.214 362.24s162.176 362.24 362.214 362.24zM515.814 755.2c-171.776 0-311.014-139.264-311.014-311.040s139.264-311.040 311.014-311.040c171.776 0 311.040 139.264 311.040 311.040s-139.264 311.040-311.040 311.040zM515.814 316.672c42.564 0 77.069-34.505 77.069-77.069s-34.505-77.069-77.069-77.069v0c-42.557 0-77.056 34.499-77.056 77.056s34.499 77.056 77.056 77.056v0zM515.814 265.472c-14.287 0-25.869-11.582-25.869-25.869s11.582-25.869 25.869-25.869v0c14.28 0 25.856 11.576 25.856 25.856s-11.576 25.856-25.856 25.856v0zM567.27 717.389c0.005 0 0.012 0 0.018 0 14.138 0 25.6-11.462 25.6-25.6 0-0.342-0.007-0.683-0.020-1.022l0.002 0.049-12.211-323.994c-0.538-13.714-11.785-24.627-25.582-24.627-0.006 0-0.013 0-0.019 0h-78.489c-0.005 0-0.012 0-0.018 0-13.796 0-25.044 10.914-25.58 24.578l-0.002 0.049-12.186 323.994c-0.012 0.29-0.018 0.631-0.018 0.973 0 14.136 11.457 25.596 25.593 25.6v0zM540.672 666.189h-49.741l10.291-272.794h29.184l10.266 272.794z" />
</font>
</defs>
</svg>
